Наша группа ВК в очередной раз забанена мы уходим в Телеграм, присоединяйтесь!!!

Лицензия

30

iTunes

мы

iTunes

1

1 сезон

Чернобыль

iTunes

1+1

iTunes

Закатать в асфальт

8 сезон

Игра престолов

1 сезон

Ральф против интернета

ИГРА 18+

pack

ВАЖНО

!!Акция!!

Alien_RageХит недели

RePack

Resident Evil 21
pack

RePack

Metro:Exodus

!!Акция!!

Alien_Rage

RePack

fifa19

RePack

Assassins Creed: Odyssey

RePack

NEED FOR SPEED™ PAYBACK

3 сезон

9 сезон

Бесстыжие 9 сезон

Все сериалы

все сериалы на PB.wtf

RePack

FAR CRY 5
Ребята, катастрофически не хватает 2730р. для оплаты серверов за АПРЕЛЬ (всвязи с блокировками трафик упал в 3 раза), 1-2р., выручайте.
  

Соломенная женщина / Woman of Straw (Безил Дирден) [1964, триллер, драма, криминал, BDRip 1080p by msltel] MVO pb.wtf

Соломенная женщина через торрент pb.wtf

Размер: 11.77 GB | Добавлен: 3 года 3 мес. назад | Торрент скачан:4 раза
Скачать  

25-02-2016 08:37 Соломенная женщина Скачать торрент  

Название: Соломенная женщина
Оригинальное название: Woman of Straw
Год выпуска: 1964
Страна: Великобритания
Жанр: триллер, драма, криминал
Продолжительность: 01:57:28
Перевод: профессиональный многоголосый

Режиссёр: Безил Дирден

В ролях: Джина Лоллобриджида, Шон Коннери, Ральф Ричардсон, Александр Нокс, Джонни Секка, Лоуренс Харди, Питер Мэдден, Дэнни Дэниелс, Ноэль Хоулетт, Дуглас Уилмер, А.Дж. Браун, Роберт Брюс

Описание: Сиделку богатого взбалмошного старика племянник богача уговаривает выйти замуж за своего дядю, чтобы после его смерти вместе получить удовольствие от его денег. Сиделка постепенно проникается симпатией к больному богачу, но когда он внезапно умирает, её обвиняют в убийстве... Роман Кэтрин Арлей, по которому поставлен этот фильм, впервые вышел во Франции в 1953 году под названием «La Femme de Paille».



Качество: BDRip 1080p Сравнение с исходником
Формат: MKV
Видео: MPEG-4 AVC, 12.6 Mбит/с, 1788x1080, 23,976 кадра/с
Аудио 1: русский, AC3, 192 kbps, 2 ch, 48 kHz [профессиональный многоголосый]
Аудио 2: английский, DTS, 1509 kbps, 2 ch, 48 kHz [оригинал]
Субтитры: русские
Общее
Уникальный идентификатор : 175123852132411537893041022004867228690 (0x83BFA0884DAE04889CC1FC4ECC89E412)
Полное имя : D:\Video\Соломенная женщина.1964.BDRip.1080p.mkv
Формат : Matroska
Версия формата : Version 4 / Version 2
Размер файла : 11,8 Гбайт
Продолжительность : 1 ч. 57 м.
Общий поток : 14,3 Мбит/сек
Дата кодирования : UTC 2016-02-24 20:01:26
Программа кодирования : mkvmerge v8.2.0 ('World of Adventure') 64bit
Библиотека кодирования : libebml v1.3.1 + libmatroska v1.4.2

Видео
Идентификатор : 1
Формат : AVC
Формат/Информация : Advanced Video Codec
Профиль формата : High@L4.1
Параметр CABAC формата : Да
Параметр ReFrames формата : 4 кадра
Идентификатор кодека : V_MPEG4/ISO/AVC
Продолжительность : 1 ч. 57 м.
Битрейт : 12,6 Мбит/сек
Ширина : 1788 пикселей
Высота : 1080 пикселей
Соотношение сторон : 5:3
Режим частоты кадров : Постоянный
Частота кадров : 23,976 (24000/1001) кадра/сек
Цветовое пространство : YUV
Субдискретизация насыщенности : 4:2:0
Битовая глубина : 8 бит
Тип развёртки : Прогрессивная
Бит/(Пиксели*Кадры) : 0.273
Размер потока : 10,4 Гбайт (88%)
Библиотека кодирования : x264 core 146 r2538 121396c
Настройки программы : cabac=1 / ref=4 / deblock=1:-3:-3 / analyse=0x3:0x113 / me=umh / subme=10 / psy=1 / psy_rd=1.00:0.15 / mixed_ref=1 / me_range=32 / chroma_me=1 / trellis=2 / 8x8dct=1 / cqm=0 / deadzone=21,11 / fast_pskip=1 / chroma_qp_offset=-3 / threads=6 / lookahead_threads=1 / sliced_threads=0 / nr=0 / decimate=1 / interlaced=0 / bluray_compat=0 / constrained_intra=0 / bframes=13 / b_pyramid=2 / b_adapt=2 / b_bias=0 / direct=1 / weightb=1 / open_gop=0 / weightp=2 / keyint=230 / keyint_min=23 / scenecut=40 / intra_refresh=0 / rc_lookahead=40 / rc=crf / mbtree=0 / crf=19.7 / qcomp=0.60 / qpmin=0 / qpmax=69 / qpstep=4 / vbv_maxrate=40000 / vbv_bufsize=50000 / crf_max=0.0 / nal_hrd=none / filler=0 / ip_ratio=1.40 / pb_ratio=1.30 / aq=1:1.00
Язык : English
Default : Да
Forced : Нет

Аудио #1
Идентификатор : 2
Формат : AC-3
Формат/Информация : Audio Coding 3
Расширение режима : CM (complete main)
Параметр Endianness формата : Big
Идентификатор кодека : A_AC3
Продолжительность : 1 ч. 57 м.
Вид битрейта : Постоянный
Битрейт : 192 Кбит/сек
Каналы : 2 канала
Расположение каналов : Front: L R
Частота : 48,0 КГц
Частота кадров : 31,250 кадров/сек (1536 spf)
Метод сжатия : С потерями
Размер потока : 161 Мбайт (1%)
Заголовок : MVO
Язык : Russian
Default : Да
Forced : Нет

Аудио #2
Идентификатор : 3
Формат : DTS
Формат/Информация : Digital Theater Systems
Режим : 16
Параметр Endianness формата : Big
Идентификатор кодека : A_DTS
Продолжительность : 1 ч. 57 м.
Вид битрейта : Постоянный
Битрейт : 1509 Кбит/сек
Каналы : 2 канала
Расположение каналов : Front: L R
Частота : 48,0 КГц
Частота кадров : 93,750 кадра/сек (512 spf)
Битовая глубина : 16 бит
Метод сжатия : С потерями
Размер потока : 1,24 Гбайт (11%)
Заголовок : Original
Язык : English
Default : Нет
Forced : Нет

Текст
Идентификатор : 4
Формат : UTF-8
Идентификатор кодека : S_TEXT/UTF8
Идентификатор кодека/Информация : UTF-8 Plain Text
Продолжительность : 1 ч. 53 м.
Битрейт : 92 бит/сек
Count of elements : 1383
Размер потока : 76,6 Кбайт (0%)
Заголовок : русский
Язык : Russian
Default : Нет
Forced : Нет
pb.wtf



Скачать Соломенная женщина через торрент http://s013.radikal.ru/i322/1602/23/f63eb3710a4e.jpg Скачать фильм Соломенная женщина через торрент бесплантно в хорошем качестве Описание: Сиделку богатого взбалмошного старика племянник богача уговаривает выйти замуж за своего дядю, чтобы после его смерти вместе ... 10 10 1
Info! Золотая раздача, скачанное не засчитывается.
Торрент: Зарегистрирован [2016-02-25 08:37] · скачан: 4 раз
Статус: √ проверено
Размер: 11.77 GB
Как cкачать? Как скачать Соломенная женщина через торрент | qTorrent

% Раздел Тема Автор DL S | L
Классика зарубежного кино [ 4.33 GB ] Соломенная женщина / Woman of Straw [1964 BDRip 720p by msltel] MVO msltel Скачать
1 | 0


>> Регистрируемся здесь <<






Отзывы и комментарии о схеме читаем и пишем здесь: ---> Отзывы и комментарии о схеме

Новые благодарочки в телеграм довольных пользователей:
скриншот   скриншот   скриншот   скриншот   скриншот

07-03-2016 09:51 Соломенная женщина Скачать торрент  

Шон Коннери красавела неплохой фильм.pb.wtf



    Дорогой пользователь! Огромная просьба, поблагодарите релизера, оцените раздачу и оставьте свои комментарий, если Вы скачали Соломенная женщина через торрент бесплатно! Внесите свою лепту в развитие PiratBit!
    Комментировать посты могут только пользователи прошедшие не сложную регистрацию
    Показать сообщения:    

    Соломенная женщина через торрент
    Скачать бесплатно Соломенная женщина
    Соломенная женщина скачать торрент
    Соломенная женщина смотреть онлайн
    Cкачать фильм Соломенная женщина бесплатно
    Соломенная женщина скачать торрент в хорошем качестве
    Соломенная женщина смотреть онлайн бесплатно в хорошем качестве


    Вы не можете начинать темы
    Вы не можете отвечать на сообщения
    Вы не можете редактировать свои сообщения
    Вы не можете удалять свои сообщения
    Вы не можете голосовать в опросах
    Вы не можете прикреплять файлы к сообщениям
    Вы можете скачивать файлы