Всегда рабочее зеркало без VPN и Proxy просто перед .vidak.icu напиши любое слово или цифру, Пример http://kgr5.vidak.icu

MVO

Лицензия

1 сезон

1

1 сезон

iTunes

1 сезон

13

1 сезон

Deluxe

pack

Рекомендуем

Пиратка

30

ВАЖНО

RePack

MK11

RePack

jed

RePack

fifa19

RePack

RDR2

RePack

NEED FOR SPEED™ PAYBACK

Кинопоиск HD

6 сезон

 Острые козырьки 6 сезон

Все сериалы

все сериалы на PB.wtf

RePack

FAR CRY 5
  
Magnet ссылка

Белое солнце пустыни. От заката до восхода (Сергей Браверман) [2016 г., Документальный, HDTV (1080p), Оригинальный] pb.wtf

Белое солнце пустыни. От заката до восхода через торрент pb.wtf

Размер: 3.17 GB | Добавлен: 6 лет 4 мес. назад | Торрент скачан:9 раз
Смотреть онлайн Белое солнце пустыни. От заката до восхода | Скачать    Ребята, помогите собрать деньги на оплату серверов!!!

25-02-2016 10:43 Белое солнце пустыни. От заката до восхода Скачать торрент  

Белое солнце пустыни. От заката до восхода
Год выпуска: 2016
Страна: Россия
Жанр: Документальный
Продолжительность: 00:51:55
Перевод: Оригинальный
Субтитры: Нет

Режиссер: Сергей Браверман

Описание: Удивительно, но для того, чтобы в Ленинградском Доме кино 14 декабря 1969 года прошла премьера фильма "Белое солнце пустыни", понадобилось личное заступничество Генерального секретаря ЦК КПСС Леонида Брежнева! Что же за скрытые смыслы могли разглядеть в этой совершенно безобидной ленте о дружбе и взаимопомощи советские цензоры, запретившие кинофильм к прокату и даже приказавшие уничтожить его.

Качество: HDTV (1080p)
Формат: TS
Видео кодек: AVC
Аудио кодек: AC3-MP2
Видео: MPEG-4 AVC, (1920x1080),7 714 Кбит/с, 25.000 кадра/сек
Аудио#1: AC3, 6 ch,384 kbps (Rus) 48.0 KHz Оригинал
Аудио#2: MP2, 2 ch,192 kbps (Rus) 48.0 KHz Оригинал
скриншот   скриншот   скриншот  

Тип потока: Видео
Длительность: 00:51:55
Кодек: AVC
Кодек/описание: Advanced Video Codec
Кодек/профиль: High@L4.0
Кодек/ID: 27
Кодек/CABAC: Yes
Кодек/ReFrames: 3 frames
Размеры изображения: 1920 x 1080 (16:9)
Частота кадров: 25.000 fps
Размер потока: 2.80 GiB (88%)
Битрейт: 7 714 Kbps
Стандарт: Component
Цветовое пространство: YUV
Тип развёртки: Interlaced
Колориметрия: 4:2:0
Глубина: 8 bits
:
Тип потока: Звук #1
Язык: Russian
Длительность: 00:51:55.072
Кодек: AC-3
Кодек/описание: Audio Coding 3
Кодек/ID: 6
Частота дискретизации: 48.0 KHz
Каналов: 6 channels
Битрейт: 384 Kbps
Битрейт/тип: Constant
Размер потока: 143 MiB (4%)
Глубина: 16 bits
Метод сжатия: Lossy
:
Тип потока: Звук #2
Язык: Russian
Длительность: 00:51:55.104
Кодек: MPEG Audio
Кодек/профиль: Layer 2
Кодек/ID: 3
Частота дискретизации: 48.0 KHz
Каналов: 2 channels
Битрейт: 192 Kbps
Битрейт/тип: Constant
Размер потока: 71.3 MiB (2%)
Метод сжатия: Lossy

pb.wtf



Скачать Белое солнце пустыни. От заката до восхода через торрент https://pic1.kartinco.top/images/10/whzim.jpg Скачать, смотреть онлайн Белое солнце пустыни. От заката до восхода бесплантно в хорошем качестве Описание: Удивительно, но для того, чтобы в Ленинградском Доме кино 14 декабря 1969 года прошла премьера фильма "Белое солнце пустыни", ... 10 10 3
Торрент: Зарегистрирован [2016-02-25 10:43] · скачан: 9 раз
Статус: √ проверено
Размер: 3.17 GB
Как cкачать? Как скачать Белое солнце пустыни. От заката до восхода через торрент | UTorrent

28-11-2019 20:33  

Отключить всю рекламу на сайте

    Дорогой пользователь! Огромная просьба, поблагодарите релизера, оцените раздачу и оставьте свои комментарий, если Вы скачали Белое солнце пустыни. От заката до восхода через торрент бесплатно!
    Комментировать посты могут только пользователи прошедшие не сложную регистрацию
    Показать сообщения:    

    Белое солнце пустыни. От заката до восхода через торрент
    Скачать бесплатно Белое солнце пустыни. От заката до восхода
    Белое солнце пустыни. От заката до восхода скачать торрент
    Белое солнце пустыни. От заката до восхода смотреть онлайн
    Cкачать фильм Белое солнце пустыни. От заката до восхода бесплатно
    Белое солнце пустыни. От заката до восхода скачать торрент в хорошем качестве
    Белое солнце пустыни. От заката до восхода смотреть онлайн бесплатно в хорошем качестве


    Вы не можете начинать темы
    Вы не можете отвечать на сообщения
    Вы не можете редактировать свои сообщения
    Вы не можете удалять свои сообщения
    Вы не можете голосовать в опросах
    Вы не можете прикреплять файлы к сообщениям
    Вы можете скачивать файлы