Архив 81

1 сезон

Добыча

Дубляж

Тед Лассо

3 сезон

Тор

1 сезон

13 клиническая

3 сезон

Жестокая ночь

Дубляж

Одни из нас

Лицензия

The Last of Us игра на PC

Extended

Deluxe

Deluxe

pack

Рекомендуем

30

Repack

ВАЖНО

ВАЖНО

Ghostwire

Пиратка

jed

RePack

nioh2

RePack

RDR2

RePack

NEED FOR SPEED™ PAYBACK

RePack

скачать торрент

Кинопоиск HD

Острые козырьки 6 сезон

6 сезон

FAR CRY 6

RePack

скачать торрент

Лицензия

скачать торрент

MVO

1

1 сезон

скачать торрент

1 сезон

скачать торрент

Лицензия

  

Человек с запада / Man of the West (Энтони Манн) [1958, драма, мелодрама, вестерн, BDRip 720p ] DVO

Человек с запада через торрент pb.wtf

Размер: 3.24 GB | Добавлен: 7 лет 1 мес. назад | Торрент скачан:3 раза
Смотреть онлайн | Скачать | Поддержите нас   

25-02-2016 11:16 Человек с запада Скачать торрент  

Название: Человек с запада
Оригинальное название: Man of the West
Год выпуска: 1958
Страна: США
Жанр: драма, мелодрама, вестерн
Продолжительность: 01:39:18
Перевод: профессиональный двухголосый

Режиссёр: Энтони Манн

В ролях: Гэри Купер, Джули Лондон, Ли Дж. Кобб, Артур О’Коннелл, Джек Лорд, Джон Денер, Ройал Дэно, Роберт Дж. Уилки, Джо Домингез, Дик Эллиотт

Описание: Бывший бандит Линк, а теперь учитель, едет в поезде, чтобы нанять в свою школу ещё учителей. Но на поезд нападают бандиты и Линк оказывается в прерии с танцовщицей и букмекером. Случайно они попадают в логово бандитов, бывших соратников Линка. Бандиты не верят Линку, да и он ненавидит их. Но они решают, что он может помочь им с одной последней банковской работой...



Качество: BDRip 720p Сравнение с исходником
Формат: MKV
Видео: MPEG-4 AVC, 4292 Кбит/с, 1280x546, 23,976 кадра/с
Аудио 1: русский, AC3, 192 kbps, 2 ch, 48 kHz [профессиональный двухголосый, НТВ+]
Аудио 2: английский, AC3, 192 kbps, 2 ch, 48 kHz [оригинал]
Общее
Уникальный идентификатор : 188695049460068398337899181752865926317 (0x8DF5583871D73B54BB449375A37A2CAD)
Полное имя : D:\Video\Человек с запада.1958.BDRip.720p.mkv
Формат : Matroska
Версия формата : Version 4 / Version 2
Размер файла : 3,24 Гбайт
Продолжительность : 1 ч. 39 м.
Общий поток : 4678 Кбит/сек
Дата кодирования : UTC 2016-02-25 07:26:32
Программа кодирования : mkvmerge v8.2.0 ('World of Adventure') 64bit
Библиотека кодирования : libebml v1.3.1 + libmatroska v1.4.2

Видео
Идентификатор : 1
Формат : AVC
Формат/Информация : Advanced Video Codec
Профиль формата : [email protected]
Параметр CABAC формата : Да
Параметр ReFrames формата : 9 кадров
Идентификатор кодека : V_MPEG4/ISO/AVC
Продолжительность : 1 ч. 39 м.
Битрейт : 4292 Кбит/сек
Ширина : 1280 пикселей
Высота : 546 пикселей
Соотношение сторон : 2,35:1
Режим частоты кадров : Постоянный
Частота кадров : 23,976 (24000/1001) кадра/сек
Цветовое пространство : YUV
Субдискретизация насыщенности : 4:2:0
Битовая глубина : 8 бит
Тип развёртки : Прогрессивная
Бит/(Пиксели*Кадры) : 0.256
Размер потока : 2,98 Гбайт (92%)
Библиотека кодирования : x264 core 146 r2538 121396c
Настройки программы : cabac=1 / ref=9 / deblock=1:-3:-3 / analyse=0x3:0x113 / me=umh / subme=10 / psy=1 / psy_rd=1.00:0.15 / mixed_ref=1 / me_range=32 / chroma_me=1 / trellis=2 / 8x8dct=1 / cqm=0 / deadzone=21,11 / fast_pskip=1 / chroma_qp_offset=-3 / threads=6 / lookahead_threads=1 / sliced_threads=0 / nr=0 / decimate=1 / interlaced=0 / bluray_compat=0 / constrained_intra=0 / bframes=14 / b_pyramid=2 / b_adapt=2 / b_bias=0 / direct=1 / weightb=1 / open_gop=0 / weightp=2 / keyint=230 / keyint_min=23 / scenecut=40 / intra_refresh=0 / rc_lookahead=40 / rc=crf / mbtree=0 / crf=20.0 / qcomp=0.60 / qpmin=0 / qpmax=69 / qpstep=4 / vbv_maxrate=40000 / vbv_bufsize=50000 / crf_max=0.0 / nal_hrd=none / filler=0 / ip_ratio=1.40 / pb_ratio=1.30 / aq=1:1.00
Язык : English
Default : Да
Forced : Нет

Аудио #1
Идентификатор : 2
Формат : AC-3
Формат/Информация : Audio Coding 3
Расширение режима : CM (complete main)
Параметр Endianness формата : Big
Идентификатор кодека : A_AC3
Продолжительность : 1 ч. 39 м.
Вид битрейта : Постоянный
Битрейт : 192 Кбит/сек
Каналы : 2 канала
Расположение каналов : Front: L R
Частота : 48,0 КГц
Частота кадров : 31,250 кадров/сек (1536 spf)
Метод сжатия : С потерями
Размер потока : 136 Мбайт (4%)
Заголовок : DVO (HTB+)
Язык : Russian
Default : Да
Forced : Нет

Аудио #2
Идентификатор : 3
Формат : AC-3
Формат/Информация : Audio Coding 3
Расширение режима : CM (complete main)
Параметр Endianness формата : Big
Идентификатор кодека : A_AC3
Продолжительность : 1 ч. 39 м.
Вид битрейта : Постоянный
Битрейт : 192 Кбит/сек
Каналы : 2 канала
Расположение каналов : Front: L R
Частота : 48,0 КГц
Частота кадров : 31,250 кадров/сек (1536 spf)
Метод сжатия : С потерями
Размер потока : 136 Мбайт (4%)
Заголовок : Original
Язык : English
Default : Нет
Forced : Нет



Скачать Человек с запада через торрент http://s019.radikal.ru/i600/1602/26/11c398e660a0.jpg Скачать, смотреть онлайн Человек с запада бесплантно в хорошем качестве Описание: Бывший бандит Линк, а теперь учитель, едет в поезде, чтобы нанять в свою школу ещё учителей. Но на поезд нападают бандиты и Линк ... 5 10 1
Info! Золотая раздача, скачанное не засчитывается.
Торрент: Зарегистрирован [2016-02-25 11:16] · скачан: 3 раз
Статус: √ проверено
Размер: 3.24 GB
Как cкачать? Как скачать Человек с запада через торрент | UTorrent

% Раздел Тема Автор DL S | L
Классика зарубежного кино [ 9.24 GB ] Человек с запада / Man of the West | | 1080p msltel Скачать
1 | 0



Последний раз редактировалось: msltel (2016-02-26 08:14), всего редактировалось 1 раз

28-11-2019 20:33  


Отключить вcю реклaмy на сайте, в т.ч. и в плеере онлайн просмотра!

    Дорогой пользователь! Огромная просьба, поблагодарите релизера, оцените раздачу и оставьте свои комментарий, если Вы скачали Человек с запада через торрент бесплатно!!
    Комментировать посты могут только пользователи прошедшие не сложную регистрацию
    Показать сообщения:    


    Человек с запада через торрент
    Скачать бесплатно Человек с запада
    Человек с запада скачать торрент
    Человек с запада смотреть онлайн
    Cкачать фильм Человек с запада бесплатно
    Человек с запада скачать торрент в хорошем качестве
    Человек с запада смотреть онлайн бесплатно в хорошем качестве
    Вы не можете начинать темы
    Вы не можете отвечать на сообщения
    Вы не можете редактировать свои сообщения
    Вы не можете удалять свои сообщения
    Вы не можете голосовать в опросах
    Вы не можете прикреплять файлы к сообщениям
    Вы можете скачивать файлы
    Человек с запада / Man of the West [1958, драма, мелодрама, вестерн, BDRip 720p ] DVO смотреть онлайн, скачать торрент picoco.icu