Ссылка на приватное зеркало нашего сайта всего за 1$. Внимание количество ограничено!!!

2 сезон

iTunes

1 сезон

1

iTunes

iTunes

iTunes

1 сезон

RePack

30

ИГРА 18+

pack

ВАЖНО

!!Акция!!

Alien_RageХит недели

RePack

MK11
pack

Забери бонус

RePack

jed

!!Акция!!

Alien_Rage

RePack

fifa19

RePack

Assassins Creed: Odyssey

RePack

NEED FOR SPEED™ PAYBACK

4 сезон

9 сезон

Бесстыжие 9 сезон

Все сериалы

все сериалы на PB.wtf

RePack

FAR CRY 5
  

Икс-Икс-Игрек / XXY (Лусия Пуэнсо) [2007, драма, BDRip 1080p by msltel] MVO pb.wtf

Икс-Икс-Игрек через торрент pb.wtf

Размер: 10.36 GB | Добавлен: 4 года 7 мес. назад | Торрент скачан:44 раза
Скачать  

26-02-2016 06:51 Икс-Икс-Игрек Скачать торрент  

Название: Икс-Икс-Игрек
Оригинальное название: XXY
Год выпуска: 2007
Страна: Франция, Испания, Аргентина
Жанр: драма
Продолжительность: 01:30:46
Перевод: профессиональный многоголосый

Режиссёр: Лусия Пуэнсо

В ролях: Рикардо Дарин, Валерия Бертучелли, Герман Паласьос, Каролина Пеллерити, Мартин Пироянски, Инес Эфрон, Джуилермо Анжелелли, Цесар Тронкозо, Жан Пьер Рекьераз, Айлин Салас, Лусиано Нобиль

Описание: Хромосомы XXY. Они дали название фильму о подростке, который в пятнадцать лет ещё точно не знает, кто он – женщина, мужчина. Обычно двух мнений быть не может, и тело явно обозначает свою принадлежность к определённому полу, помогая душе. Но как быть тому, кто родился не мужчиной, не женщиной, а гермафродитом? До 15 лет Алекс (Алекса?) так и не смог (не смогла?) определиться. Оказавшись в компании стеснительного подростка, точно знающего, что он юноша, наш герой (героиня?) решает проверить себя. Итог проверки одинаково удивителен и для него (для неё?), и для партнёра-девственника, который с ужасом понимает, что получает удовольствие от роли пассивного содомита...



Качество: BDRip 1080p Сравнение с исходником
Формат: MKV
Видео: MPEG-4 AVC, 14.4 Mбит/с, 1920x1036, 23,976 кадра/с
Аудио 1: русский, AC3, 448 kbps, 6 ch, 48 kHz [профессиональный многоголосый]
Аудио 2: испанский, DTS, 1509 kbps, 3 ch, 48 kHz [оригинал]
Субтитры: английские
Общее
Уникальный идентификатор : 171820137527440193276462513861142959005 (0x81435AD399FD6FE096D28DA7DB8ED39D)
Полное имя : D:\Video\Икс-Икс-Игрек.2007.BDRip.1080p.mkv
Формат : Matroska
Версия формата : Version 4 / Version 2
Размер файла : 10,4 Гбайт
Продолжительность : 1 ч. 30 м.
Общий поток : 16,3 Мбит/сек
Дата кодирования : UTC 2016-02-26 02:45:34
Программа кодирования : mkvmerge v8.2.0 ('World of Adventure') 64bit
Библиотека кодирования : libebml v1.3.1 + libmatroska v1.4.2

Видео
Идентификатор : 1
Формат : AVC
Формат/Информация : Advanced Video Codec
Профиль формата : High@L4.1
Параметр CABAC формата : Да
Параметр ReFrames формата : 4 кадра
Идентификатор кодека : V_MPEG4/ISO/AVC
Продолжительность : 1 ч. 30 м.
Битрейт : 14,4 Мбит/сек
Ширина : 1920 пикселей
Высота : 1036 пикселей
Соотношение сторон : 1,85:1
Режим частоты кадров : Постоянный
Частота кадров : 23,976 (24000/1001) кадра/сек
Цветовое пространство : YUV
Субдискретизация насыщенности : 4:2:0
Битовая глубина : 8 бит
Тип развёртки : Прогрессивная
Бит/(Пиксели*Кадры) : 0.302
Размер потока : 9,12 Гбайт (88%)
Библиотека кодирования : x264 core 146 r2538 121396c
Настройки программы : cabac=1 / ref=4 / deblock=1:-1:-1 / analyse=0x3:0x113 / me=umh / subme=10 / psy=1 / psy_rd=1.00:0.15 / mixed_ref=1 / me_range=32 / chroma_me=1 / trellis=2 / 8x8dct=1 / cqm=0 / deadzone=21,11 / fast_pskip=1 / chroma_qp_offset=-3 / threads=6 / lookahead_threads=1 / sliced_threads=0 / nr=0 / decimate=1 / interlaced=0 / bluray_compat=0 / constrained_intra=0 / bframes=10 / b_pyramid=2 / b_adapt=2 / b_bias=0 / direct=1 / weightb=1 / open_gop=0 / weightp=2 / keyint=230 / keyint_min=23 / scenecut=40 / intra_refresh=0 / rc_lookahead=40 / rc=crf / mbtree=0 / crf=17.7 / qcomp=0.60 / qpmin=0 / qpmax=69 / qpstep=4 / vbv_maxrate=40000 / vbv_bufsize=50000 / crf_max=0.0 / nal_hrd=none / filler=0 / ip_ratio=1.40 / pb_ratio=1.30 / aq=1:1.00
Язык : Spanish
Default : Да
Forced : Нет

Аудио #1
Идентификатор : 2
Формат : AC-3
Формат/Информация : Audio Coding 3
Расширение режима : CM (complete main)
Параметр Endianness формата : Big
Идентификатор кодека : A_AC3
Продолжительность : 1 ч. 30 м.
Вид битрейта : Постоянный
Битрейт : 448 Кбит/сек
Каналы : 6 каналов
Расположение каналов : Front: L C R, Side: L R, LFE
Частота : 48,0 КГц
Частота кадров : 31,250 кадров/сек (1536 spf)
Метод сжатия : С потерями
Размер потока : 291 Мбайт (3%)
Заголовок : MVO
Язык : Russian
Default : Да
Forced : Нет

Аудио #2
Идентификатор : 3
Формат : DTS
Формат/Информация : Digital Theater Systems
Режим : 16
Параметр Endianness формата : Big
Идентификатор кодека : A_DTS
Продолжительность : 1 ч. 30 м.
Вид битрейта : Постоянный
Битрейт : 1509 Кбит/сек
Каналы : 3 канала
Расположение каналов : Front: L R, LFE
Частота : 48,0 КГц
Частота кадров : 93,750 кадра/сек (512 spf)
Битовая глубина : 16 бит
Метод сжатия : С потерями
Размер потока : 980 Мбайт (9%)
Заголовок : Original
Язык : Spanish
Default : Нет
Forced : Нет

Текст
Идентификатор : 4
Формат : UTF-8
Идентификатор кодека : S_TEXT/UTF8
Идентификатор кодека/Информация : UTF-8 Plain Text
Продолжительность : 1 ч. 22 м.
Битрейт : 20 бит/сек
Count of elements : 520
Размер потока : 12,4 Кбайт (0%)
Заголовок : английский
Язык : English
Default : Нет
Forced : Нет
pb.wtf



Скачать Икс-Икс-Игрек через торрент http://s017.radikal.ru/i416/1602/7c/c5c0968145fe.jpg Скачать фильм Икс-Икс-Игрек через торрент бесплантно в хорошем качестве Описание: Хромосомы XXY. Они дали название фильму о подростке, который в пятнадцать лет ещё точно не знает, кто он – женщина, мужчина. ... 3.3 10 6
Info! Золотая раздача, скачанное не засчитывается.
Торрент: Зарегистрирован [2016-02-26 06:51] · скачан: 44 раз
Статус: √ проверено
Размер: 10.36 GB
Как cкачать? Как скачать Икс-Икс-Игрек через торрент | qTorrent

% Раздел Тема Автор DL S | L
Фильмы [HD 720p, 1080p] (Хороший звук DUB, MVO) [ 4.37 GB ] Икс-Икс-Игрек / XXY [2007 BDRip 720p by msltel] MVO msltel Скачать
1 | 0

28-11-2019 20:33  

Отключить всю рекламу на сайте

    Дорогой пользователь! Огромная просьба, поблагодарите релизера, оцените раздачу и оставьте свои комментарий, если Вы скачали Икс-Икс-Игрек через торрент бесплатно! Внесите свою лепту в развитие PiratBit!
    Комментировать посты могут только пользователи прошедшие не сложную регистрацию
    Показать сообщения:    

    Икс-Икс-Игрек через торрент
    Скачать бесплатно Икс-Икс-Игрек
    Икс-Икс-Игрек скачать торрент
    Икс-Икс-Игрек смотреть онлайн
    Cкачать фильм Икс-Икс-Игрек бесплатно
    Икс-Икс-Игрек скачать торрент в хорошем качестве
    Икс-Икс-Игрек смотреть онлайн бесплатно в хорошем качестве


    Вы не можете начинать темы
    Вы не можете отвечать на сообщения
    Вы не можете редактировать свои сообщения
    Вы не можете удалять свои сообщения
    Вы не можете голосовать в опросах
    Вы не можете прикреплять файлы к сообщениям
    Вы можете скачивать файлы