MEGA SALE -50% FORZA HORIZON 4 ULTIMATE+ВСЕ DLC+ОНЛАЙН всего за 599р. 299 руб. (супер цена). Внимание количество ограничено!!!

iTunes

1+1

iTunes

мы

iTunes

1

iTunes

Чернобыль

iTunes

Ральф против интернета

Лицензия

ПШазам

Лицензия

Игра престолов

Лицензия

30
pack

ВАЖНО

!!Акция!!

Alien_RageХит недели

RePack

Resident Evil 21

ИГРА 18+

pack

RePack

Metro:Exodus

!!Акция!!

Alien_Rage

RePack

fifa19

RePack

Assassins Creed: Odyssey

RePack

NEED FOR SPEED™ PAYBACK

3 сезон

9 сезон

Бесстыжие 9 сезон

Все сериалы

все сериалы на PB.wtf

RePack

FAR CRY 5
Ребята, катастрофически не хватает 7730р. для оплаты серверов за ИЮЛЬ (всвязи с блокировками трафик упал в 3 раза), 1-2р., выручайте.
  

Человек с запада / Man of the West (Энтони Манн) [1958, драма, мелодрама, вестерн, BDRip 1080p by msltel] DVO pb.wtf

Человек с запада через торрент pb.wtf

Размер: 9.24 GB | Добавлен: 3 года 5 мес. назад | Торрент скачан:3 раза
Скачать  

26-02-2016 08:11 Человек с запада Скачать торрент  

Название: Человек с запада
Оригинальное название: Man of the West
Год выпуска: 1958
Страна: США
Жанр: драма, мелодрама, вестерн
Продолжительность: 01:39:18
Перевод: профессиональный двухголосый

Режиссёр: Энтони Манн

В ролях: Гэри Купер, Джули Лондон, Ли Дж. Кобб, Артур О’Коннелл, Джек Лорд, Джон Денер, Ройал Дэно, Роберт Дж. Уилки, Джо Домингез, Дик Эллиотт

Описание: Бывший бандит Линк, а теперь учитель, едет в поезде, чтобы нанять в свою школу ещё учителей. Но на поезд нападают бандиты и Линк оказывается в прерии с танцовщицей и букмекером. Случайно они попадают в логово бандитов, бывших соратников Линка. Бандиты не верят Линку, да и он ненавидит их. Но они решают, что он может помочь им с одной последней банковской работой...



Качество: BDRip 1080p Сравнение с исходником
Формат: MKV
Видео: MPEG-4 AVC, 12.4 Mбит/с, 1920x818, 23,976 кадра/с
Аудио 1: русский, AC3, 192 kbps, 2 ch, 48 kHz [профессиональный двухголосый, НТВ+]
Аудио 2: английский, DTS, 768 kbps, 2 ch, 48 kHz [оригинал]
Общее
Уникальный идентификатор : 195848622594746406678108456859623873253 (0x9357129B4D5511ACAE1B4BCDCDEDDAE5)
Полное имя : D:\Video\Человек с запада.1958.BDRip.1080p.mkv
Формат : Matroska
Версия формата : Version 4 / Version 2
Размер файла : 9,24 Гбайт
Продолжительность : 1 ч. 39 м.
Общий поток : 13,3 Мбит/сек
Дата кодирования : UTC 2016-02-26 06:20:55
Программа кодирования : mkvmerge v8.2.0 ('World of Adventure') 64bit
Библиотека кодирования : libebml v1.3.1 + libmatroska v1.4.2

Видео
Идентификатор : 1
Формат : AVC
Формат/Информация : Advanced Video Codec
Профиль формата : High@L4.1
Параметр CABAC формата : Да
Параметр ReFrames формата : 4 кадра
Идентификатор кодека : V_MPEG4/ISO/AVC
Продолжительность : 1 ч. 39 м.
Битрейт : 12,4 Мбит/сек
Ширина : 1920 пикселей
Высота : 818 пикселей
Соотношение сторон : 2,35:1
Режим частоты кадров : Постоянный
Частота кадров : 23,976 (24000/1001) кадра/сек
Цветовое пространство : YUV
Субдискретизация насыщенности : 4:2:0
Битовая глубина : 8 бит
Тип развёртки : Прогрессивная
Бит/(Пиксели*Кадры) : 0.328
Размер потока : 8,58 Гбайт (93%)
Библиотека кодирования : x264 core 146 r2538 121396c
Настройки программы : cabac=1 / ref=4 / deblock=1:-3:-3 / analyse=0x3:0x113 / me=umh / subme=10 / psy=1 / psy_rd=1.00:0.15 / mixed_ref=1 / me_range=32 / chroma_me=1 / trellis=2 / 8x8dct=1 / cqm=0 / deadzone=21,11 / fast_pskip=1 / chroma_qp_offset=-3 / threads=6 / lookahead_threads=1 / sliced_threads=0 / nr=0 / decimate=1 / interlaced=0 / bluray_compat=0 / constrained_intra=0 / bframes=14 / b_pyramid=2 / b_adapt=2 / b_bias=0 / direct=1 / weightb=1 / open_gop=0 / weightp=2 / keyint=230 / keyint_min=23 / scenecut=40 / intra_refresh=0 / rc_lookahead=40 / rc=crf / mbtree=0 / crf=19.5 / qcomp=0.60 / qpmin=0 / qpmax=69 / qpstep=4 / vbv_maxrate=40000 / vbv_bufsize=50000 / crf_max=0.0 / nal_hrd=none / filler=0 / ip_ratio=1.40 / pb_ratio=1.30 / aq=1:1.00
Язык : English
Default : Да
Forced : Нет

Аудио #1
Идентификатор : 2
Формат : AC-3
Формат/Информация : Audio Coding 3
Расширение режима : CM (complete main)
Параметр Endianness формата : Big
Идентификатор кодека : A_AC3
Продолжительность : 1 ч. 39 м.
Вид битрейта : Постоянный
Битрейт : 192 Кбит/сек
Каналы : 2 канала
Расположение каналов : Front: L R
Частота : 48,0 КГц
Частота кадров : 31,250 кадров/сек (1536 spf)
Метод сжатия : С потерями
Размер потока : 136 Мбайт (1%)
Заголовок : DVO (HTB+)
Язык : Russian
Default : Да
Forced : Нет

Аудио #2
Идентификатор : 3
Формат : DTS
Формат/Информация : Digital Theater Systems
Режим : 16
Параметр Endianness формата : Big
Идентификатор кодека : A_DTS
Продолжительность : 1 ч. 39 м.
Вид битрейта : Постоянный
Битрейт : 768 Кбит/сек
Каналы : 2 канала
Расположение каналов : Front: L R
Частота : 48,0 КГц
Частота кадров : 93,750 кадра/сек (512 spf)
Битовая глубина : 16 бит
Метод сжатия : С потерями
Размер потока : 545 Мбайт (6%)
Заголовок : Original
Язык : English
Default : Нет
Forced : Нет
pb.wtf



Скачать Человек с запада через торрент http://s019.radikal.ru/i600/1602/26/11c398e660a0.jpg Скачать фильм Человек с запада через торрент бесплантно в хорошем качестве Описание: Бывший бандит Линк, а теперь учитель, едет в поезде, чтобы нанять в свою школу ещё учителей. Но на поезд нападают бандиты и Линк ... 9 10 1
Info! Золотая раздача, скачанное не засчитывается.
Торрент: Зарегистрирован [2016-02-26 08:11] · скачан: 3 раз
Статус: √ проверено
Размер: 9.24 GB
Как cкачать? Как скачать Человек с запада через торрент | qTorrent

% Раздел Тема Автор DL S | L
Классика зарубежного кино [ 3.24 GB ] Человек с запада / Man of the West [1958 BDRip 720p by msltel] DVO msltel Скачать
1 | 0


>> Регистрируемся здесь <<






Отзывы и комментарии о схеме читаем и пишем здесь: ---> Отзывы и комментарии о схеме

Новые благодарочки в телеграм довольных пользователей:
скриншот   скриншот   скриншот   скриншот   скриншот
    Дорогой пользователь! Огромная просьба, поблагодарите релизера, оцените раздачу и оставьте свои комментарий, если Вы скачали Человек с запада через торрент бесплатно! Внесите свою лепту в развитие PiratBit!
    Комментировать посты могут только пользователи прошедшие не сложную регистрацию
    Показать сообщения:    

    Человек с запада через торрент
    Скачать бесплатно Человек с запада
    Человек с запада скачать торрент
    Человек с запада смотреть онлайн
    Cкачать фильм Человек с запада бесплатно
    Человек с запада скачать торрент в хорошем качестве
    Человек с запада смотреть онлайн бесплатно в хорошем качестве


    Вы не можете начинать темы
    Вы не можете отвечать на сообщения
    Вы не можете редактировать свои сообщения
    Вы не можете удалять свои сообщения
    Вы не можете голосовать в опросах
    Вы не можете прикреплять файлы к сообщениям
    Вы можете скачивать файлы