новый адрес пиратбит piratbit
Мега распродажа FORZA HORIZON 4 ULTIMATE+ВСЕ DLC+ОНЛАЙН всего за 499р. 349 руб. (супер цена). Внимание количество ограничено!!!

iTunes

1+1

iTunes

мы

iTunes

1

iTunes

Чернобыль

iTunes

Ральф против интернета

Лицензия

ПШазам

Лицензия

Игра престолов

Лицензия

30
pack

ВАЖНО

!!Акция!!

Alien_RageХит недели

RePack

Resident Evil 21

ИГРА 18+

pack

RePack

Metro:Exodus

!!Акция!!

Alien_Rage

RePack

fifa19

RePack

Assassins Creed: Odyssey

RePack

NEED FOR SPEED™ PAYBACK

3 сезон

9 сезон

Бесстыжие 9 сезон

Все сериалы

все сериалы на PB.wtf

RePack

FAR CRY 5
Ребята, катастрофически не хватает 1900р. для оплаты серверов за Октябрь (всвязи с блокировками трафик упал в 3 раза), 1-2р., выручайте.
  

Волки и овцы (Владимир Сухобоков) [1953, СССР, драма, комедия, DVDRip от AVP Studio] pb.wtf

Волки и овцы через торрент pb.wtf

Размер: 2.18 GB | Добавлен: 3 года 8 мес. назад | Торрент скачан:19 раз
Скачать  

26-02-2016 08:29 Волки и овцы Скачать торрент  

Волки и овцы
Страна: СССР
Производство: К/ст им.Горького

Жанр: драма, комедия
Год выпуска: 1953
Продолжительность: 02:53:07

Перевод: Не требуется
Cубтитры: нет
Оригинальная аудиодорожка: русский

Режиссер: Владимир Сухобоков

В ролях:
Вера Пашенная, Игорь Ильинский, Татьяна Еремеева, Елена Шатрова, Варвара Рыжова, Николай Светловидов, Борис Телегин, Владимир Владиславский, Дмитрий Павлов...
Полный список актёров

Описание:
Фильм-спектакль Государственного академического Малого театра по пьесе А.Н. Островского.
Провинциальная помещица Мурзавецкая, ханжа, скрывающаяся под маской благочестия и добродетели, хочет прибрать к рукам состояние богатой вдовы Купавиной. Для этого она решает женить на молодой вдове своего беспутного и слабовольного племянника. Но приехавший из столицы помещик Беркутов разрушает планы Мурзавецкой. Он входит в доверие к Купавиной и женится на молодой вдове.

Источник: DVD9 R5
Качество видео: DVDRip
Формат видео: AVI

Видео: 688x512 (4:3), 25 fps, XviD ~ 1599 kbps avg, 0.182 bit/pixel
Аудио: 48 kHz, Dolby Digital AC3 2.0, 192 kbps

Раздача от:
Общее
Полное имя : Volki.i.ovcy.1953.DVDRip_[New-team]_by_AVP_Studio.avi
Формат : AVI
Формат/Информация : Audio Video Interleave
Профиль формата : OpenDML
Размер файла : 2,18 Гбайт
Продолжительность : 2 ч. 53 м.
Общий поток : 1804 Кбит/сек
Программа кодирования : VirtualDubMod 1.5.10.3 | www.virtualdub-fr.org || (build 2550/release)
Библиотека кодирования : VirtualDubMod build 2550/release

Видео
Идентификатор : 0
Формат : MPEG-4 Visual
Профиль формата : Advanced Simple@L5
Параметр BVOP формата : 1
Параметр QPel формата : Нет
Параметр GMC формата : Без точки перехода
Параметр матрицы формата : Выборочная
Идентификатор кодека : XVID
Идентификатор кодека/Подсказка : XviD
Продолжительность : 2 ч. 53 м.
Битрейт : 1599 Кбит/сек
Ширина : 688 пикселей
Высота : 512 пикселей
Соотношение сторон : 4:3
Частота кадров : 25,000 кадров/сек
Цветовое пространство : YUV
Субдискретизация насыщенности : 4:2:0
Битовая глубина : 8 бит
Тип развёртки : Прогрессивная
Метод сжатия : С потерями
Бит/(Пиксели*Кадры) : 0.182
Размер потока : 1,93 Гбайт (89%)
Библиотека кодирования : XviD 1.2.1 (UTC 2008-12-04)

Аудио
Идентификатор : 1
Формат : AC-3
Формат/Информация : Audio Coding 3
Расширение режима : CM (complete main)
Параметр Endianness формата : Big
Идентификатор кодека : 2000
Продолжительность : 2 ч. 53 м.
Вид битрейта : Постоянный
Битрейт : 192 Кбит/сек
Каналы : 2 канала
Расположение каналов : Front: L R
Частота : 48,0 КГц
Частота кадров : 31,250 кадров/сек (1536 spf)
Метод сжатия : С потерями
Размер потока : 238 Мбайт (11%)
Выравнивание : Разделение по промежуткам
Продолжительность промежутка : 40 мс. (1,00 видеокадр)
Время предзагрузки промежутка : 500 мс
pb.wtf



Скачать Волки и овцы через торрент http://s019.radikal.ru/i623/1602/79/d6df883ee5a5.png Скачать фильм Волки и овцы через торрент бесплантно в хорошем качестве Описание:Фильм-спектакль Государственного академического Малого театра по пьесе А.Н. Островского.Провинциальная помещица Мурзавецкая, ... 10 10 1
Info! Золотая раздача, скачанное не засчитывается.
Торрент: Зарегистрирован [2016-02-26 08:29] · скачан: 19 раз
Статус: √ проверено
Размер: 2.18 GB
Как cкачать? Как скачать Волки и овцы через торрент | qTorrent

% Раздел Тема Автор DL S | L
Наши мультфильмы [ 1.34 GB ] Волки и Овцы: Ход свиньёй [2018 Мультфильм BDRip] [Русский] Twi7ter Скачать
26 | 1
3D Мультфильмы [ 5.76 GB ] Волки и Овцы: Ход свиньёй 3Д / 3D [2018 Мультфильм BDRip 1080p] [Half OverUnder] bober100 Скачать
1 | 0
3D Мультфильмы [ 9.23 GB ] Волки и Овцы: Ход свиньёй в 3Д / 3D [2018 мультфильм BDRip 1080p] OverUnder / Вертикальная стереопара () serega768 Скачать
2 | 0
Наши мультфильмы [ 1.65 GB ] Волки и Овцы: Ход свиньёй [2018 Мультфильм BDRip-AVC] [GER Transfer / ] - ExKinoRay Enigma2010 Скачать
1 | 0
Наши Мультфильмы (HD, WEB-DL 720p, 1080p) [ 4.6 GB ] Волки и Овцы: Ход свиньёй [2018 Мультфильм BDRip 1080p] [GER Transfer / ] bober100 Скачать
1 | 0
Наши мультфильмы [ 1.09 GB ] Волки и Овцы: Ход свиньёй [2018 Мультфильм BDRip] [GER Transfer / ] bober100 Скачать
1 | 0
Классика [ 343 MB ] Александр Островский - Волки и овцы [Федосов Станислав 2007 192 kbps MP3] bober100 Скачать
1 | 0


>> Регистрируемся здесь <<






Отзывы и комментарии о схеме читаем и пишем здесь: ---> Отзывы и комментарии о схеме

Новые благодарочки в телеграм довольных пользователей:
скриншот   скриншот   скриншот   скриншот   скриншот
    Дорогой пользователь! Огромная просьба, поблагодарите релизера, оцените раздачу и оставьте свои комментарий, если Вы скачали Волки и овцы через торрент бесплатно! Внесите свою лепту в развитие PiratBit!
    Комментировать посты могут только пользователи прошедшие не сложную регистрацию
    Показать сообщения:    

    Волки и овцы через торрент
    Скачать бесплатно Волки и овцы
    Волки и овцы скачать торрент
    Волки и овцы смотреть онлайн
    Cкачать фильм Волки и овцы бесплатно
    Волки и овцы скачать торрент в хорошем качестве
    Волки и овцы смотреть онлайн бесплатно в хорошем качестве


    Вы не можете начинать темы
    Вы не можете отвечать на сообщения
    Вы не можете редактировать свои сообщения
    Вы не можете удалять свои сообщения
    Вы не можете голосовать в опросах
    Вы не можете прикреплять файлы к сообщениям
    Вы можете скачивать файлы