Ссылка на приватное зеркало нашего сайта всего за 1$. Внимание количество ограничено!!!

2 сезон

iTunes

1 сезон

1

iTunes

iTunes

iTunes

1 сезон

RePack

30

ИГРА 18+

pack

ВАЖНО

!!Акция!!

Alien_RageХит недели

RePack

MK11
pack

Забери бонус

RePack

jed

!!Акция!!

Alien_Rage

RePack

fifa19

RePack

Assassins Creed: Odyssey

RePack

NEED FOR SPEED™ PAYBACK

4 сезон

9 сезон

Бесстыжие 9 сезон

Все сериалы

все сериалы на PB.wtf

RePack

FAR CRY 5
  

Впритык / Due Date (Тодд Филлипс) [2010, комедия, BDRip 720p by msltel] DUB, 2 x AVO pb.wtf

Впритык через торрент pb.wtf

Раздают: 1 [ 0 KB/s ]
Размер: 3.62 GB | Добавлен: 4 года 8 мес. назад | Торрент скачан:451 раз
Скачать  

26-02-2016 12:59 Впритык Скачать торрент  

Название: Впритык
Оригинальное название: Due Date
Год выпуска: 2010
Страна: США
Жанр: комедия
Продолжительность: 01:35:15
Перевод: дублированный, авторский

Режиссёр: Тодд Филлипс

В ролях: Роберт Дауни мл., Зак Галифианакис, Мишель Монахэн, Джейми Фокс, Джульетт Льюис, Дэнни МакБрайд, RZA, Мэтт Уолш, Броди Стивенс, Джейкоб Ульрих

Описание: Питер готовится стать отцом и находится на грани нервного срыва. И его нервам не идёт на пользу тот факт, что ему предстоит предпринять целое путешествие, да ещё и в компании честолюбивого актёра, чтобы успеть добраться домой к рождению собственного ребенка...



Качество: BDRip 720p Сравнение с исходником
Формат: MKV
Видео: MPEG-4 AVC, 3653 Kбит/с, 1280x534, 23,976 кадра/с
Аудио 1: русский, AC3, 448 kbps, 6 ch, 48 kHz [дублированный]
Аудио 2: русский, AC3, 448 kbps, 6 ch, 48 kHz [авторский, Юрий Сербин]
Аудио 3: русский, AC3, 448 kbps, 6 ch, 48 kHz [авторский, seqw0, с ненормативной лексикой]
Аудио 4: английский, AC3, 448 kbps, 6 ch, 48 kHz [оригинал]
Субтитры 1: русские
Субтитры 2: английские (для слабослышащих)
Общее
Уникальный идентификатор : 199611797507642070656578422825940083108 (0x962BD574650E4A7ABADA2E1B2822E1A4)
Полное имя : D:\Video\Впритык.2010.BDRip.720p.mkv
Формат : Matroska
Версия формата : Version 4 / Version 2
Размер файла : 3,62 Гбайт
Продолжительность : 1 ч. 35 м.
Общий поток : 5447 Кбит/сек
Дата кодирования : UTC 2016-02-26 12:11:21
Программа кодирования : mkvmerge v8.2.0 ('World of Adventure') 64bit
Библиотека кодирования : libebml v1.3.1 + libmatroska v1.4.2

Видео
Идентификатор : 1
Формат : AVC
Формат/Информация : Advanced Video Codec
Профиль формата : High@L4.1
Параметр CABAC формата : Да
Параметр ReFrames формата : 9 кадров
Идентификатор кодека : V_MPEG4/ISO/AVC
Продолжительность : 1 ч. 35 м.
Битрейт : 3653 Кбит/сек
Ширина : 1280 пикселей
Высота : 534 пикселя
Соотношение сторон : 2,40:1
Режим частоты кадров : Постоянный
Частота кадров : 23,976 (24000/1001) кадра/сек
Цветовое пространство : YUV
Субдискретизация насыщенности : 4:2:0
Битовая глубина : 8 бит
Тип развёртки : Прогрессивная
Бит/(Пиксели*Кадры) : 0.223
Размер потока : 2,43 Гбайт (67%)
Библиотека кодирования : x264 core 146 r2538 121396c
Настройки программы : cabac=1 / ref=9 / deblock=1:-1:-1 / analyse=0x3:0x113 / me=umh / subme=10 / psy=1 / psy_rd=1.00:0.15 / mixed_ref=1 / me_range=32 / chroma_me=1 / trellis=2 / 8x8dct=1 / cqm=0 / deadzone=21,11 / fast_pskip=1 / chroma_qp_offset=-3 / threads=6 / lookahead_threads=1 / sliced_threads=0 / nr=0 / decimate=1 / interlaced=0 / bluray_compat=0 / constrained_intra=0 / bframes=9 / b_pyramid=2 / b_adapt=2 / b_bias=0 / direct=1 / weightb=1 / open_gop=0 / weightp=2 / keyint=230 / keyint_min=23 / scenecut=40 / intra_refresh=0 / rc_lookahead=40 / rc=crf / mbtree=0 / crf=19.5 / qcomp=0.60 / qpmin=0 / qpmax=69 / qpstep=4 / vbv_maxrate=40000 / vbv_bufsize=50000 / crf_max=0.0 / nal_hrd=none / filler=0 / ip_ratio=1.40 / pb_ratio=1.30 / aq=1:1.00
Язык : English
Default : Да
Forced : Нет

Аудио #1
Идентификатор : 2
Формат : AC-3
Формат/Информация : Audio Coding 3
Расширение режима : CM (complete main)
Параметр Endianness формата : Big
Идентификатор кодека : A_AC3
Продолжительность : 1 ч. 35 м.
Вид битрейта : Постоянный
Битрейт : 448 Кбит/сек
Каналы : 6 каналов
Расположение каналов : Front: L C R, Side: L R, LFE
Частота : 48,0 КГц
Частота кадров : 31,250 кадров/сек (1536 spf)
Метод сжатия : С потерями
Размер потока : 305 Мбайт (8%)
Заголовок : DUB
Язык : Russian
Default : Да
Forced : Нет

Аудио #2
Идентификатор : 3
Формат : AC-3
Формат/Информация : Audio Coding 3
Расширение режима : CM (complete main)
Параметр Endianness формата : Big
Идентификатор кодека : A_AC3
Продолжительность : 1 ч. 35 м.
Вид битрейта : Постоянный
Битрейт : 448 Кбит/сек
Каналы : 6 каналов
Расположение каналов : Front: L C R, Side: L R, LFE
Частота : 48,0 КГц
Частота кадров : 31,250 кадров/сек (1536 spf)
Метод сжатия : С потерями
Размер потока : 305 Мбайт (8%)
Заголовок : AVO (Юрий Сербин)
Язык : Russian
Default : Нет
Forced : Нет

Аудио #3
Идентификатор : 4
Формат : AC-3
Формат/Информация : Audio Coding 3
Расширение режима : CM (complete main)
Параметр Endianness формата : Big
Идентификатор кодека : A_AC3
Продолжительность : 1 ч. 35 м.
Вид битрейта : Постоянный
Битрейт : 448 Кбит/сек
Каналы : 6 каналов
Расположение каналов : Front: L C R, Side: L R, LFE
Частота : 48,0 КГц
Частота кадров : 31,250 кадров/сек (1536 spf)
Метод сжатия : С потерями
Размер потока : 305 Мбайт (8%)
Заголовок : AVO (seqw0, с ненормативной лексикой)
Язык : Russian
Default : Нет
Forced : Нет

Аудио #4
Идентификатор : 5
Формат : AC-3
Формат/Информация : Audio Coding 3
Расширение режима : CM (complete main)
Параметр Endianness формата : Big
Идентификатор кодека : A_AC3
Продолжительность : 1 ч. 35 м.
Вид битрейта : Постоянный
Битрейт : 448 Кбит/сек
Каналы : 6 каналов
Расположение каналов : Front: L C R, Side: L R, LFE
Частота : 48,0 КГц
Частота кадров : 31,250 кадров/сек (1536 spf)
Метод сжатия : С потерями
Размер потока : 305 Мбайт (8%)
Заголовок : Original
Язык : English
Default : Нет
Forced : Нет

Текст #1
Идентификатор : 6
Формат : UTF-8
Идентификатор кодека : S_TEXT/UTF8
Идентификатор кодека/Информация : UTF-8 Plain Text
Продолжительность : 1 ч. 34 м.
Битрейт : 77 бит/сек
Count of elements : 1763
Размер потока : 53,4 Кбайт (0%)
Заголовок : русский
Язык : Russian
Default : Нет
Forced : Нет

Текст #2
Идентификатор : 7
Формат : UTF-8
Идентификатор кодека : S_TEXT/UTF8
Идентификатор кодека/Информация : UTF-8 Plain Text
Продолжительность : 1 ч. 34 м.
Битрейт : 76 бит/сек
Count of elements : 1493
Размер потока : 53,3 Кбайт (0%)
Заголовок : английский (для слабослышащих)
Default : Нет
Forced : Нет
pb.wtf



Скачать Впритык через торрент http://s017.radikal.ru/i430/1602/02/0741817cd816.jpg Скачать фильм Впритык через торрент бесплантно в хорошем качестве Описание: Питер готовится стать отцом и находится на грани нервного срыва. И его нервам не идёт на пользу тот факт, что ему предстоит ... 9 10 11
Info! Золотая раздача, скачанное не засчитывается.
Торрент: Зарегистрирован [2016-02-26 12:59] · скачан: 451 раз
Статус: √ проверено
Размер: 3.62 GB
Как cкачать? Как скачать Впритык через торрент | qTorrent

% Раздел Тема Автор DL S | L
Фильмы [HD 720p, 1080p] (Хороший звук DUB, MVO) [ 9.58 GB ] Впритык / Due Date [2010 BDRip 1080p by msltel] DUB 2 x AVO msltel Скачать
1 | 0

28-11-2019 20:33  

Отключить всю рекламу на сайте

    Дорогой пользователь! Огромная просьба, поблагодарите релизера, оцените раздачу и оставьте свои комментарий, если Вы скачали Впритык через торрент бесплатно! Внесите свою лепту в развитие PiratBit!
    Комментировать посты могут только пользователи прошедшие не сложную регистрацию
    Показать сообщения:    

    Впритык через торрент
    Скачать бесплатно Впритык
    Впритык скачать торрент
    Впритык смотреть онлайн
    Cкачать фильм Впритык бесплатно
    Впритык скачать торрент в хорошем качестве
    Впритык смотреть онлайн бесплатно в хорошем качестве


    Вы не можете начинать темы
    Вы не можете отвечать на сообщения
    Вы не можете редактировать свои сообщения
    Вы не можете удалять свои сообщения
    Вы не можете голосовать в опросах
    Вы не можете прикреплять файлы к сообщениям
    Вы можете скачивать файлы