Лицензия

MVO

1

1 сезон

Лицензия

Лицензия

13

MVO

1 сезон

Deluxe Edition

pack

Рекомендуем

30

Repack

ВАЖНО

ВАЖНО

Ghostwire

RePack

jed

RePack

fifa19

RePack

RDR2

RePack

NEED FOR SPEED™ PAYBACK

RePack

Кинопоиск HD

 Острые козырьки 6 сезон

6 сезон

FAR CRY 6

RePack

Лицензия

MVO

1

1 сезон

1 сезон

Лицензия

  

Крадущийся тигр, затаившийся дракон / Wo hu cang long (Энг Ли) [2000 г., боевик, драма, мелодрама, BDRip-AVC, Профессиональный (многоголосый)]

Крадущийся тигр, затаившийся дракон через торрент pb.wtf

Размер: 2.91 GB | Добавлен: 6 лет 7 мес. назад | Торрент скачан:221 раз
Смотреть онлайн Крадущийся тигр, затаившийся дракон | Скачать   

27-02-2016 08:26 Крадущийся тигр, затаившийся дракон Скачать торрент  

Крадущийся тигр затаившийся дракон / Wo hu cang long
Год выпуска: 2000
Страна: Тайвань, Гонконг, США, Китай
Жанр: боевик, драма, мелодрама
Продолжительность: 02:00:14
Перевод: Профессиональный (многоголосый)
Субтитры: русские (полные), английские (полные, полные SDH)

Режиссер: Энг Ли

В ролях: Чоу Юнь-Фат, Мишель Йео, Чжан Цзыи, Чан Чэнь, Сихун Лун, Пеи-пеи Ченг, Фа Зенг Ли, Сянь Гао, Хай Янь, Де Минг Ванг

Описание: Легендарный мастер боевых искусств Ли Мубай отправляется на поиски магического меча зеленой стали, похищенного тайными злоумышленниками. Впереди его ждет зловещая фигура давнего противника, наемного убийцы, который после долгого отсутствия снова вернулся на тропу войны…

Качество: BDRip-AVC
Формат: MKV
Видео: 1024x428 (2.40:1), 23.976 fps, MPEG-4 AVC, ~2700 kbps avg, 0.257 bit/pixel
Аудио#1: 48 kHz, AC3 Dolby Digital, 3/2 (L,C,R,l,r) + LFE ch, ~384 kbps (MVO)
Аудио#2: 48 kHz, AC3 Dolby Digital, 3/2 (L,C,R,l,r) + LFE ch, ~384 kbps (CHI)

Главы: присутствуют, сохранены оригинальные
Общее
Уникальный идентификатор : 184571927152604696118450829852967138232 (0x8ADB429883085A88BEE7DEFE9F5773B8)
Полное имя : D:\Скачанное\Crouching.Tiger.Hidden.Dragon.2000.DUAL.BDRip-AVC.x264.AC3.-HQCLUB.mkv
Формат : Matroska
Версия формата : Version 2
Размер файла : 2,91 Гбайт
Продолжительность : 2 ч. 0 м.
Общий поток : 3469 Кбит/сек
Дата кодирования : UTC 2014-08-23 09:40:01
Программа кодирования : mkvmerge v5.2.0 ('I can't explain') built on Dec 18 2011 18:12:03
Библиотека кодирования : libebml v1.2.3 + libmatroska v1.3.0

Видео
Идентификатор : 1
Формат : AVC
Формат/Информация : Advanced Video Codec
Профиль формата : [email protected]
Параметр CABAC формата : Да
Параметр ReFrames формата : 12 кадров
Идентификатор кодека : V_MPEG4/ISO/AVC
Продолжительность : 2 ч. 0 м.
Битрейт : 2700 Кбит/сек
Ширина : 1024 пикселя
Высота : 428 пикселей
Соотношение сторон : 2,40:1
Режим частоты кадров : Постоянный
Частота кадров : 23,976 (24000/1001) кадра/сек
Цветовое пространство : YUV
Субдискретизация насыщенности : 4:2:0
Битовая глубина : 8 бит
Тип развёртки : Прогрессивная
Бит/(Пиксели*Кадры) : 0.257
Размер потока : 2,21 Гбайт (76%)
Заголовок : Крадущийся тигр, затаившийся дракон / Крадущийся тигр, спрятавшийся дракон / Crouching Tiger, Hidden Dragon / Wo hu cang long (2000) BDRip-AVC by HQCLUB [Elheym]
Библиотека кодирования : x264 core 142 r2453 ea0ca51
Настройки программы : cabac=1 / ref=12 / deblock=1:-3:-2 / analyse=0x3:0x113 / me=umh / subme=11 / psy=1 / psy_rd=1.05:0.00 / mixed_ref=1 / me_range=32 / chroma_me=1 / trellis=2 / 8x8dct=1 / cqm=0 / deadzone=21,11 / fast_pskip=1 / chroma_qp_offset=-4 / threads=6 / lookahead_threads=1 / sliced_threads=0 / nr=0 / decimate=1 / interlaced=0 / bluray_compat=0 / constrained_intra=0 / bframes=13 / b_pyramid=2 / b_adapt=2 / b_bias=0 / direct=3 / weightb=1 / open_gop=0 / weightp=2 / keyint=240 / keyint_min=23 / scenecut=40 / intra_refresh=0 / rc_lookahead=40 / rc=2pass / mbtree=1 / bitrate=2700 / ratetol=1.0 / qcomp=0.60 / qpmin=10 / qpmax=69 / qpstep=4 / cplxblur=20.0 / qblur=0.5 / vbv_maxrate=50000 / vbv_bufsize=62500 / nal_hrd=none / filler=0 / ip_ratio=1.40 / aq=1:0.90
Язык : Chinese
Default : Да
Forced : Нет

Аудио #1
Идентификатор : 2
Формат : AC-3
Формат/Информация : Audio Coding 3
Расширение режима : CM (complete main)
Параметр Endianness формата : Big
Идентификатор кодека : A_AC3
Продолжительность : 2 ч. 0 м.
Вид битрейта : Постоянный
Битрейт : 384 Кбит/сек
Каналы : 6 каналов
Расположение каналов : Front: L C R, Side: L R, LFE
Частота : 48,0 КГц
Частота кадров : 31,250 кадров/сек (1536 spf)
Метод сжатия : С потерями
Размер потока : 330 Мбайт (11%)
Заголовок : АС3 5.1 @ 384 kbps - MVO, Blu-Ray EUR
Язык : Russian
Default : Нет
Forced : Нет

Аудио #2
Идентификатор : 3
Формат : AC-3
Формат/Информация : Audio Coding 3
Расширение режима : CM (complete main)
Параметр Endianness формата : Big
Идентификатор кодека : A_AC3
Продолжительность : 2 ч. 0 м.
Вид битрейта : Постоянный
Битрейт : 384 Кбит/сек
Каналы : 6 каналов
Расположение каналов : Front: L C R, Side: L R, LFE
Частота : 48,0 КГц
Частота кадров : 31,250 кадров/сек (1536 spf)
Метод сжатия : С потерями
Размер потока : 330 Мбайт (11%)
Заголовок : АС3 5.1 @ 384 kbps - Original
Язык : Chinese
Default : Нет
Forced : Нет

Текст #1
Идентификатор : 4
Формат : UTF-8
Идентификатор кодека : S_TEXT/UTF8
Идентификатор кодека/Информация : UTF-8 Plain Text
Заголовок : Full
Язык : Russian
Default : Нет
Forced : Нет

Текст #2
Идентификатор : 5
Формат : UTF-8
Идентификатор кодека : S_TEXT/UTF8
Идентификатор кодека/Информация : UTF-8 Plain Text
Заголовок : Full
Язык : English
Default : Нет
Forced : Нет

Текст #3
Идентификатор : 6
Формат : UTF-8
Идентификатор кодека : S_TEXT/UTF8
Идентификатор кодека/Информация : UTF-8 Plain Text
Заголовок : Full SDH
Язык : English
Default : Нет
Forced : Нет

Меню
00:00:00.000 : :Chapter 01
00:08:20.500 : :Chapter 02
00:15:22.171 : :Chapter 03
00:23:51.179 : :Chapter 04
00:33:06.943 : :Chapter 05
00:37:11.395 : :Chapter 06
00:43:07.209 : :Chapter 07
00:49:09.571 : :Chapter 08
00:53:43.762 : :Chapter 09
01:13:24.900 : :Chapter 10
01:20:14.976 : :Chapter 11
01:29:58.935 : :Chapter 12
01:35:22.717 : :Chapter 13
01:43:59.691 : :Chapter 14
01:47:43.165 : :Chapter 15
01:52:17.230 : :Chapter 16
скриншот   скриншот   скриншот   скриншот   скриншот   скриншот  



Скачать Крадущийся тигр, затаившийся дракон через торрент https://pic1.kartinco.top/images/10/2prfs.jpg Скачать, смотреть онлайн Крадущийся тигр, затаившийся дракон бесплантно в хорошем качестве Описание: Легендарный мастер боевых искусств Ли Мубай отправляется на поиски магического меча зеленой стали, похищенного тайными ... 10 10 4
Торрент: Зарегистрирован [2016-02-27 08:26] · скачан: 221 раз
Статус: √ проверено
Размер: 2.91 GB
Как cкачать? Как скачать Крадущийся тигр, затаившийся дракон через торрент | UTorrent

% Раздел Тема Автор DL S | L
Ultra HD (UHD: 2K, 4K, 8K) [ 53.54 GB ] Крадущийся тигр, затаившийся дракон / Wo hu cang long | Лицензия | 2160p sheker187 Скачать
1 | 0
Фильмы (Blu-ray, BD-Remux, HDDVD) [ 32.12 GB ] Крадущийся тигр, затаившийся дракон / Wo hu cang long | MVO | Blu-ray CEE Russian Mafia Скачать
1 | 1
Фильмы до 2000 г. [ 2.18 GB ] Крадущийся тигр, затаившийся дракон / Wo hu cang long | MVO + AVO | BDRip gunk Скачать
1 | 0



Последний раз редактировалось: Russian Mafia (2016-02-27 08:34), всего редактировалось 1 раз

28-11-2019 20:33  

Отключить вcю реклaмy на сайте

    Дорогой пользователь! Огромная просьба, поблагодарите релизера, оцените раздачу и оставьте свои комментарий, если Вы скачали Крадущийся тигр, затаившийся дракон через торрент бесплатно!!
    Комментировать посты могут только пользователи прошедшие не сложную регистрацию
    Показать сообщения:    


    Крадущийся тигр, затаившийся дракон через торрент
    Скачать бесплатно Крадущийся тигр, затаившийся дракон
    Крадущийся тигр, затаившийся дракон скачать торрент
    Крадущийся тигр, затаившийся дракон смотреть онлайн
    Cкачать фильм Крадущийся тигр, затаившийся дракон бесплатно
    Крадущийся тигр, затаившийся дракон скачать торрент в хорошем качестве
    Крадущийся тигр, затаившийся дракон смотреть онлайн бесплатно в хорошем качестве
    Вы не можете начинать темы
    Вы не можете отвечать на сообщения
    Вы не можете редактировать свои сообщения
    Вы не можете удалять свои сообщения
    Вы не можете голосовать в опросах
    Вы не можете прикреплять файлы к сообщениям
    Вы можете скачивать файлы