новый адрес пиратбит piratbit
Мега распродажа FORZA HORIZON 4 ULTIMATE+ВСЕ DLC+ОНЛАЙН всего за 499р. 349 руб. (супер цена). Внимание количество ограничено!!!

iTunes

1+1

iTunes

мы

iTunes

1

iTunes

Чернобыль

iTunes

Ральф против интернета

Лицензия

ПШазам

Лицензия

Игра престолов

Лицензия

30
pack

ВАЖНО

!!Акция!!

Alien_RageХит недели

RePack

Resident Evil 21

ИГРА 18+

pack

RePack

Metro:Exodus

!!Акция!!

Alien_Rage

RePack

fifa19

RePack

Assassins Creed: Odyssey

RePack

NEED FOR SPEED™ PAYBACK

3 сезон

9 сезон

Бесстыжие 9 сезон

Все сериалы

все сериалы на PB.wtf

RePack

FAR CRY 5
Ребята, катастрофически не хватает 1900р. для оплаты серверов за Октябрь (всвязи с блокировками трафик упал в 3 раза), 1-2р., выручайте.
  

Сталинград (Фёдор Бондарчук) [2013, военный, драма, боевик, BDRip 720p от potroks] [Лицензия] pb.wtf

Сталинград через торрент pb.wtf

Размер: 5.37 GB | Добавлен: 3 года 8 мес. назад | Торрент скачан:186 раз
Скачать  

27-02-2016 09:48 Сталинград Скачать торрент  

Сталинград
«The epic battle that turned the tide of World War II»
Год выпуска: 2013
Страна: Россия / Арт Пикчерс Студия, Нон-стоп Продакшн
Жанр: военный, драма, боевик
Продолжительность: 02:10:50
Перевод: Оригинал [BD CEE]
Субтитры: русские (на немецкую речь), английские (Full), английские (SDH)
Навигация по главам: есть
Режиссер: Фёдор Бондарчук
В ролях:

Мария Смольникова (Катя), Янина Студилина (Маша), Пётр Фёдоров (капитан Громов), Томас Кречман (капитан Петер Кан), Сергей Бондарчук (Сергей), Дмитрий Лысенков (снайпер Чванов), Андрей Смоляков (артиллерист Поляков), Алексей Барабаш (разведчик Александр Никифоров), Олег Волку (Романов), Хайнер Лаутербах (Хензе), Полина Райкина (Наташка), Анна Вон Аблер (Нина)
Описание: 1942-й год. Сталинград. Советские войска планируют контрнаступление на немецкие части, занявшие правый берег Волги. Наступление сорвано. Лишь разведчикам под командованием капитана Громова удается перебраться на другой берег и закрепиться в одном из домов. Им дан приказ удержать его любой ценой. Кроме нескольких чудом уцелевших советских солдат они находят в доме его последнюю жительницу - 19-летнюю Катю.
Приказ отбить дом, захваченный противником, получает немецкий офицер Кан. На фоне одного из самых кровопролитных сражений в истории человечества разворачиваются истории любви и драматического противостояния характеров.

Качество: BDRip 720p
Формат: MKV
Видео кодек: AVC
Аудио кодек: AC3
Видео: 1280x526 (2.40:1), 4596 kbps, 23,976 fps, 0,285 bit/pixel
Аудио №1: AC3 / 5.1 / 48 kHz / 640 kbps / 16 bit | RUS
Аудио №2: AC3 / 5.1 / 48 kHz / 640 kbps / 16 bit | ENG

Релиз группы:
Автор рипа: potroks

Код:

Общее
Уникальный идентификатор : 174826996186138215263826561032199927614 (0x838674677ED7A45BB0E04F7E6F90F73E)
Полное имя : Stalingrad.2013.DUAL.BDRip.720p.-HELLYWOOD.mkv
Формат : Matroska
Версия формата : Version 4 / Version 2
Размер файла : 5,37 Гбайт
Продолжительность : 2 ч. 10 м.
Общий поток : 5879 Кбит/сек
Название фильма : Сталинград (2013) - HELLYWOOD
Дата кодирования : UTC 2016-02-27 09:24:45
Программа кодирования : mkvmerge v5.9.0 ('On The Loose') built on Dec 15 2012 16:39:58
Библиотека кодирования : libebml v1.3.0 + libmatroska v1.4.0

Видео
Идентификатор : 1
Формат : AVC
Формат/Информация : Advanced Video Codec
Профиль формата : High@L4.1
Параметр CABAC формата : Да
Параметр ReFrames формата : 8 кадров
Идентификатор кодека : V_MPEG4/ISO/AVC
Продолжительность : 2 ч. 10 м.
Битрейт : 4596 Кбит/сек
Ширина : 1280 пикселей
Высота : 526 пикселей
Соотношение сторон : 2,40:1
Режим частоты кадров : Постоянный
Частота кадров : 23,976 кадра/сек
Цветовое пространство : YUV
Субдискретизация насыщенности : 4:2:0
Битовая глубина : 8 бит
Тип развёртки : Прогрессивная
Бит/(Пиксели*Кадры) : 0.285
Размер потока : 4,10 Гбайт (76%)
Заголовок : potroks
Библиотека кодирования : x264 core 130 r2273 b3065e6
Настройки программы : cabac=1 / ref=8 / deblock=1:-2:-2 / analyse=0x3:0x133 / me=umh / subme=11 / psy=1 / psy_rd=1.03:0.00 / mixed_ref=1 / me_range=48 / chroma_me=1 / trellis=2 / 8x8dct=1 / cqm=0 / deadzone=21,11 / fast_pskip=0 / chroma_qp_offset=-2 / threads=9 / lookahead_threads=6 / sliced_threads=0 / nr=0 / decimate=0 / interlaced=0 / bluray_compat=0 / constrained_intra=0 / bframes=9 / b_pyramid=2 / b_adapt=2 / b_bias=0 / direct=3 / weightb=1 / open_gop=0 / weightp=2 / keyint=250 / keyint_min=23 / scenecut=40 / intra_refresh=0 / rc_lookahead=60 / rc=2pass / mbtree=0 / bitrate=4596 / ratetol=1.0 / qcomp=0.70 / qpmin=0 / qpmax=69 / qpstep=4 / cplxblur=20.0 / qblur=0.5 / vbv_maxrate=50000 / vbv_bufsize=62500 / nal_hrd=none / ip_ratio=1.35 / pb_ratio=1.25 / aq=1:0.70
Язык : Russian
Default : Да
Forced : Нет

Аудио #1
Идентификатор : 2
Формат : AC-3
Формат/Информация : Audio Coding 3
Расширение режима : CM (complete main)
Параметр Endianness формата : Big
Идентификатор кодека : A_AC3
Продолжительность : 2 ч. 10 м.
Вид битрейта : Постоянный
Битрейт : 640 Кбит/сек
Каналы : 6 каналов
Расположение каналов : Front: L C R, Side: L R, LFE
Частота : 48,0 КГц
Метод сжатия : С потерями
Размер потока : 599 Мбайт (11%)
Заголовок : Original | DD 5.1 @ 640 kbps - Blu-Ray CEE
Язык : Russian
Default : Да
Forced : Да

Аудио #2
Идентификатор : 3
Формат : AC-3
Формат/Информация : Audio Coding 3
Расширение режима : CM (complete main)
Параметр Endianness формата : Big
Идентификатор кодека : A_AC3
Продолжительность : 2 ч. 10 м.
Вид битрейта : Постоянный
Битрейт : 640 Кбит/сек
Каналы : 6 каналов
Расположение каналов : Front: L C R, Side: L R, LFE
Частота : 48,0 КГц
Метод сжатия : С потерями
Размер потока : 599 Мбайт (11%)
Заголовок : DD 5.1 @ 640 kbps - BD CEE
Язык : English
Default : Нет
Forced : Нет

Текст #1
Идентификатор : 4
Формат : UTF-8
Идентификатор кодека : S_TEXT/UTF8
Идентификатор кодека/Информация : UTF-8 Plain Text
Заголовок : Forced
Язык : Russian
Default : Да
Forced : Да

Текст #2
Идентификатор : 5
Формат : UTF-8
Идентификатор кодека : S_TEXT/UTF8
Идентификатор кодека/Информация : UTF-8 Plain Text
Заголовок : Full
Язык : English
Default : Нет
Forced : Нет

Текст #3
Идентификатор : 6
Формат : UTF-8
Идентификатор кодека : S_TEXT/UTF8
Идентификатор кодека/Информация : UTF-8 Plain Text
Заголовок : SDH
Язык : English
Default : Нет
Forced : Нет

Меню
00:06:28.513 : en:(01)00:06:28:513
00:14:09.473 : en:(02)00:14:09:473
00:23:06.009 : en:(03)00:23:06:009
00:32:00.460 : en:(04)00:32:00:460
00:39:35.664 : en:(05)00:39:35:664
00:46:41.465 : en:(06)00:46:41:465
00:54:56.876 : en:(07)00:54:56:876
01:06:44.625 : en:(08)01:06:44:625
01:13:04.505 : en:(09)01:13:04:505
01:20:45.966 : en:(10)01:20:45:966
01:28:13.913 : en:(11)01:28:13:913
01:36:18.022 : en:(12)01:36:18:022
01:45:07.634 : en:(13)01:45:07:634
01:51:52.414 : en:(14)01:51:52:414
02:01:05.216 : en:(15)02:01:05:216

pb.wtf



Скачать Сталинград через торрент http://i76.fastpic.ru/big/2016/0227/c8/5a9eb01f146adf44aac796560b3d7ac8.png Скачать фильм Сталинград через торрент бесплантно в хорошем качестве Описание: 1942-й год. Сталинград. Советские войска планируют контрнаступление на немецкие части, занявшие правый берег Волги. Наступление ... 7.3 10 8
Info! Золотая раздача, скачанное не засчитывается.
Торрент: Зарегистрирован [2016-02-27 09:48] · скачан: 186 раз
Статус: √ проверено
Размер: 5.37 GB
Как cкачать? Как скачать Сталинград через торрент | qTorrent

% Раздел Тема Автор DL S | L
Старые игры [ 1.11 GB ] Сталинград [RePack RUS] by RUSJATINA RUSJATINA Скачать
2 | 0
Документальные фильмы и телепередачи [ 857 MB ] Сталинград. Мы еще живы или нет? [2018 Документальный SATRip] Armstrong Скачать
1 | 0
Фильмы [HD 720p, 1080p] (Хороший звук DUB, MVO) [ 9.86 GB ] Сталинград / Stalingrad [1993 военный BDRip 720p] DVO + AVO + Original ger + Sub rus eng -Lexx- Скачать
1 | 0
Наши фильмы (HD, WEB-DL 720p, 1080p) [ 12.8 GB ] Сталинград [2013 Военный BDRip 1080p ] лисяра Скачать
1 | 0
Наши фильмы (Blu-ray, BD-Remux, HDDVD) [ 38.84 GB ] Сталинград [2013 военный Blu-ray EUR] Russian Mafia Скачать
1 | 0
Наши новые фильмы 2013 [ 1.46 GB ] Сталинград [2013 военный HDRip][] MihailHD Скачать
1 | 0
Кино СССР [ 2.9 GB ] Сталинградская битва [1949 СССР военный DVDRip-AVC от AVP Studio] Original + DUB AVP Studio Скачать
1 | 0


>> Регистрируемся здесь <<






Отзывы и комментарии о схеме читаем и пишем здесь: ---> Отзывы и комментарии о схеме

Новые благодарочки в телеграм довольных пользователей:
скриншот   скриншот   скриншот   скриншот   скриншот

27-02-2016 16:51 Сталинград Скачать торрент  

Федя: - Я снимаю шляпу!
Критики: - Да мы знаем что вы снимаете. Как фильм-то?pb.wtf



29-02-2016 09:27 Сталинград Скачать торрент  

да-да надо еще глянутьpb.wtf



    Дорогой пользователь! Огромная просьба, поблагодарите релизера, оцените раздачу и оставьте свои комментарий, если Вы скачали Сталинград через торрент бесплатно! Внесите свою лепту в развитие PiratBit!
    Комментировать посты могут только пользователи прошедшие не сложную регистрацию
    Показать сообщения:    

    Сталинград через торрент
    Скачать бесплатно Сталинград
    Сталинград скачать торрент
    Сталинград смотреть онлайн
    Cкачать фильм Сталинград бесплатно
    Сталинград скачать торрент в хорошем качестве
    Сталинград смотреть онлайн бесплатно в хорошем качестве


    Вы не можете начинать темы
    Вы не можете отвечать на сообщения
    Вы не можете редактировать свои сообщения
    Вы не можете удалять свои сообщения
    Вы не можете голосовать в опросах
    Вы не можете прикреплять файлы к сообщениям
    Вы можете скачивать файлы