Всегда рабочее зеркало просто перед .vidak.icu напиши любое слово или цифру, Пример http://zsx.vidak.icu

>

7.4

iTunes

7.4

2 сезон

9.4

1 сезон

1

7.4

2 сезон

7.2

iTunes

6.0

MVO

13

6.1

iTunes

8.3

Пиратка

30

ULTIMATE

pack

9.9

Лицензия

ВАЖНО

ИГРА 18+

pack

7.3

RePack

MK11

7.7

RePack

jed

7.8

RePack

fifa19

8.5

RePack

RDR2

RePack

NEED FOR SPEED™ PAYBACK

1 сезон

9 сезон

Бесстыжие 9 сезон

Все сериалы

все сериалы на PB.wtf

RePack

FAR CRY 5

Anonymous, добрый день, мы катастрофически не успеваем собрать деньги на оплату серверов, помогите нам пожалуйста 5,10,15р., для нас важна любая помощь . В качестве благодарности мы отключим Вам всю рекламу на сайте (укажите свой ник в строку Ваше имя)!

×
  
Magnet ссылка

Субура / Suburra (Стефано Соллима) [2015 г., триллер, драма, криминал, HDRip, Авторский одноголосый "А.Матвеев"] pb.wtf

Субура через торрент pb.wtf

Размер: 2.18 GB | Добавлен: 5 лет 10 мес. назад | Торрент скачан:30 раз
Смотреть онлайн Субура | Скачать    Ребята, помогите собрать деньги на оплату серверов!!!

27-02-2016 18:00 Субура Скачать торрент  

Субура / Suburra
Год выпуска: 2015
Страна: Италия, Франция / Cattleya, Rai Cinema, La Chauve Souris
Жанр: триллер, драма, криминал
Продолжительность: 02:15:07
Перевод: Авторский одноголосый (А.Матвеев)

Режиссер: Стефано Соллима

IMDB 7.40 (3365)


В ролях: Грета Скарано, Пьерфранческо Фавино, Жан-Юг Англад, Элио Джермано, Клаудио Амендола, Алессандро Борги, Лидия Витале, Джулия Гориетти

Описание: Субура — известный в античности, как опасный, шумный, сырой и грязный, с множеством торговцев и проституток, район Древнего Рима. И спустя несколько тысячелетий среди великолепного городского пейзажа Рима разыгрываются отвратительные сцены из спектакля под названием жизнь. Гангстер по прозвищу Самурай хочет превратить пригород Рима в новый Лас-Вегас. Все местные криминальные авторитеты согласились работать для достижения общей цели. Но этот мир продлится недолго...

Доп. информация: В фильме присутствует ненормативная лексика

Качество: HDRip
Формат: AVI
Видео кодек: XviD
Аудио кодек: AC3
Видео: MPEG4, XviD, 720x304 (2.35:1), 24.000 fps, 1 851 Kbps (0.352 bit/pixel)
Аудио: AC-3, 48.0 KHz, 6 ch, 448 Kbps, CBR

Общее
Полное имя : F:\кино\Субура.2015.A.HDRip.avi
Формат : AVI
Формат/Информация : Audio Video Interleave
Профиль формата : OpenDML
Размер файла : 2,18 Гбайт
Продолжительность : 2 ч. 15 м.
Общий поток : 2311 Кбит/сек
Программа кодирования : VirtualDubMod 1.5.10.3 | www.virtualdub-fr.org || (build 2550/release)
Библиотека кодирования : VirtualDubMod build 2550/release

Видео
Идентификатор : 0
Формат : MPEG-4 Visual
Профиль формата : Advanced Simple@L5
Параметр BVOP формата : 2
Параметр QPel формата : Нет
Параметр GMC формата : Без точки перехода
Параметр матрицы формата : Default (H.263)
Идентификатор кодека : XVID
Идентификатор кодека/Подсказка : XviD
Продолжительность : 2 ч. 15 м.
Битрейт : 1851 Кбит/сек
Ширина : 720 пикселей
Высота : 304 пикселя
Соотношение сторон : 2,35:1
Частота кадров : 24,000 кадра/сек
Цветовое пространство : YUV
Субдискретизация насыщенности : 4:2:0
Битовая глубина : 8 бит
Тип развёртки : Прогрессивная
Метод сжатия : С потерями
Бит/(Пиксели*Кадры) : 0.352
Размер потока : 1,75 Гбайт (80%)
Библиотека кодирования : XviD 1.2.1 (UTC 2008-12-04)

Аудио
Идентификатор : 1
Формат : AC-3
Формат/Информация : Audio Coding 3
Расширение режима : CM (complete main)
Параметр Endianness формата : Big
Идентификатор кодека : 2000
Продолжительность : 2 ч. 15 м.
Вид битрейта : Постоянный
Битрейт : 448 Кбит/сек
Каналы : 6 каналов
Расположение каналов : Front: L C R, Side: L R, LFE
Частота : 48,0 КГц
Частота кадров : 31,250 кадров/сек (1536 spf)
Метод сжатия : С потерями
Размер потока : 433 Мбайт (19%)
Выравнивание : Разделение по промежуткам
Продолжительность промежутка : 42 мс. (1,00 видеокадр)
Время предзагрузки промежутка : 500 мс.

pb.wtf



Скачать Субура через торрент https://pic.kartinco.top/images/11/sx4n3.jpg Скачать, смотреть онлайн Субура бесплантно в хорошем качестве Описание: Субура — известный в античности, как опасный, шумный, сырой и грязный, с множеством торговцев и проституток, район Древнего Рима. ... 7.5 10 2
Торрент: Зарегистрирован [2016-02-27 18:00] · скачан: 30 раз
Статус: √ проверено
Размер: 2.18 GB
Как cкачать? Как скачать Субура через торрент | UTorrent

% Раздел Тема Автор DL S | L
Зарубежные сериалы [ 3.33 GB ] Субура / Suburra: Blood on Rome / Сезон: 3 / Серии: 1-6 из 6 [2020 WEB-DLRip] MVO [Jaskier] bober100 Скачать
1 | 0
Зарубежные сериалы [ 5.65 GB ] Субура / Suburra: Blood on Rome / Сезон: 3 / Серии: 1-6 из 6 [2020 WEB-DL 720p] MVO [Jaskier] bober100 Скачать
1 | 0
Зарубежные сериалы [ 9.04 GB ] Субура / Suburra: Blood on Rome / Сезон: 3 / Серии: 1-6 из 6 [2020 WEB-DL 1080p] MVO [Jaskier] bober100 Скачать
1 | 0
Зарубежные сериалы [ 13.96 GB ] Субура / Suburra / Сезон: 2 / Серии: 1-8 из 8 [2019 WEB-DL 720p] MVO [Jaskier] bober100 Скачать
1 | 0
Зарубежные сериалы [ 4.68 GB ] Субура / Suburra / Сезон: 2 / Серии: 1-8 из 8 [2019 WEB-DLRip] MVO [Jaskier] bober100 Скачать
1 | 0
Зарубежные сериалы [ 10.62 GB ] Субура / Suburra / Сезон: 1 / Серии: 1-10 из 10 [2017 WEBRip 720p] MVO [Jaskier] bober100 Скачать
1 | 0
Зарубежные сериалы [ 6.25 GB ] Субура / Suburra / Сезон: 1 / Серии: 1-10 из 10 [2017 WEBRip] MVO [Jaskier] bober100 Скачать
1 | 0

28-11-2019 20:33  

Отключить всю рекламу на сайте

27-02-2016 18:24 Субура Скачать торрент  

О, за Матвеева отдельное спс.pb.wtf



28-02-2016 07:22 Субура Скачать торрент  

КАК фильм стоящий?pb.wtf



    Дорогой пользователь! Огромная просьба, поблагодарите релизера, оцените раздачу и оставьте свои комментарий, если Вы скачали Субура через торрент бесплатно!
    Комментировать посты могут только пользователи прошедшие не сложную регистрацию
    Показать сообщения:    

    Субура через торрент
    Скачать бесплатно Субура
    Субура скачать торрент
    Субура смотреть онлайн
    Cкачать фильм Субура бесплатно
    Субура скачать торрент в хорошем качестве
    Субура смотреть онлайн бесплатно в хорошем качестве


    Вы не можете начинать темы
    Вы не можете отвечать на сообщения
    Вы не можете редактировать свои сообщения
    Вы не можете удалять свои сообщения
    Вы не можете голосовать в опросах
    Вы не можете прикреплять файлы к сообщениям
    Вы можете скачивать файлы