Ссылка на приватное зеркало нашего сайта всего за 1$. Внимание количество ограничено!!!

2 сезон

iTunes

1 сезон

1

2 сезон

2 сезон

iTunes

1 сезон

RePack

30

Ultimate

ВАЖНО

ИГРА 18+

pack

RePack

MK11
pack

Забери бонус

RePack

jed

!!Акция!!

Alien_Rage

RePack

fifa19

RePack

Assassins Creed: Odyssey

RePack

NEED FOR SPEED™ PAYBACK

4 сезон

9 сезон

Бесстыжие 9 сезон

Все сериалы

все сериалы на PB.wtf

RePack

FAR CRY 5
  

Проклятие ведьминого дерева / Curse of the Witching Tree (Джеймс Кроу) [2015, ужасы, DVDRip, Любительский (двухголосый) [2D] без рекламы pb.wtf

Проклятие ведьминого дерева через торрент pb.wtf

Размер: 1.38 GB | Добавлен: 4 года 9 мес. назад | Торрент скачан:447 раз
Скачать  

28-02-2016 10:29 Проклятие ведьминого дерева Скачать торрент  


Проклятие ведьминого дерева / Curse of the Witching Tree


ИНФОРМАЦИЯ:
Год выпуска:2015
Страна: Великобритания
Жанр: ужасы
Продолжительность: 01:42:37
Перевод: Любительский (двухголосый) [2D]
Режиссер: Джеймс Кроу

В Ролях:


Сара Роуз Дентон (Amber Thorson), Lucy Jane Clarvis (Emma Thorson), Lawrence Weller (Jake Thorson), Чарли Бонд (Nurse), Viv Bonney (Mother Creedon), Кэролайн Болтон (Eva), Даниэль Бакс (Isobel Redwood), Rob Byrne (Nurse 2), Джон Кэмплинг (Father Flanagan), Frankie James Danton (Plague Child), Oliver Ebsworth (Plague Child), Jayne Friend (Newsreader)

Описание:
Семья переезжает на новую ферму, где, по слухам, жила ведьма, убивашая собственного сына и еще 9х детей. В то время как отец семейства лежит в коме, а жена и дети надеются на его возвращение к ним, в доме начинает пробуждаться древнее зло, потревоженное шуточным спиритическим сеансом, который провели хулиганы в том самом сарае, где ведьма совершала свои страшные злодеяния...

  • Мировая премьера:18 мая 2015

    ТЕХ.ДАННЫЕ:
    Качество: DVDRip
    Формат: AVI
    Видео: XviD, 720x304 (2.35:1), 1727 kbps, 23,976 fps, 0,329 bpp
    Аудио: AC3 / 2.0 / 48 kHz / 192 kbps / 16 bit


    General
    Complete name : D:\Торенты\Curse.of.the.Witching.Tree.DVDRip.avi
    Format : AVI
    Format/Info : Audio Video Interleave
    File size : 1.38 GiB
    Duration : 1h 42mn
    Overall bit rate : 1 928 Kbps
    Writing application : VirtualDubMod 1.5.10.3 (build 2550/release)
    Writing library : VirtualDubMod build 2550/release

    Video
    ID : 0
    Format : MPEG-4 Visual
    Format profile : Advanced Simple@L5
    Format settings, BVOP : 2
    Format settings, QPel : No
    Format settings, GMC : No warppoints
    Format settings, Matrix : Default (H.263)
    Muxing mode : Packed bitstream
    Codec ID : XVID
    Codec ID/Hint : XviD
    Duration : 1h 42mn
    Bit rate : 1 727 Kbps
    Width : 720 pixels
    Height : 304 pixels
    Display aspect ratio : 2.35:1
    Frame rate : 23.976 fps
    Color space : YUV
    Chroma subsampling : 4:2:0
    Bit depth : 8 bits
    Scan type : Progressive
    Compression mode : Lossy
    Bits/(Pixel*Frame) : 0.329
    Stream size : 1.24 GiB (90%)
    Writing library : XviD 73

    Audio
    ID : 1
    Format : AC-3
    Format/Info : Audio Coding 3
    Mode extension : CM (complete main)
    Codec ID : 2000
    Duration : 1h 42mn
    Bit rate mode : Constant
    Bit rate : 192 Kbps
    Channel(s) : 2 channels
    Channel positions : Front: L R
    Sampling rate : 48.0 KHz
    Bit depth : 16 bits
    Compression mode : Lossy
    Stream size : 141 MiB (10%)
    Alignment : Split accross interleaves
    Interleave, duration : 42 ms (1.00 video frame)
    Interleave, preload duration : 500 ms
    Скриншоты:

    © Оформление by .::Ворон::.
    pb.wtf



  • Скачать Проклятие ведьминого дерева через торрент http://pic.kartinco.top/images/6/ordi9.jpg Скачать фильм Проклятие ведьминого дерева через торрент бесплантно в хорошем качестве Описание: Семья переезжает на новую ферму, где, по слухам, жила ведьма, убивашая собственного сына и еще 9х детей. В то время как отец ... 8.4 10 13
    Торрент: Зарегистрирован [2016-02-28 10:29] · скачан: 447 раз
    Статус: T временная
    Размер: 1.38 GB
    Как cкачать? Как скачать Проклятие ведьминого дерева через торрент | qTorrent



    Последний раз редактировалось: Ворон (2016-02-28 19:39), всего редактировалось 1 раз

    28-11-2019 20:33  

    Отключить всю рекламу на сайте

    28-02-2016 11:24 Проклятие ведьминого дерева Скачать торрент  

    По скринам ,что-то не похоже на ужасы pb.wtf



    28-02-2016 11:30 Проклятие ведьминого дерева Скачать торрент  

    Они там, что весь фильм в ванной валяются.pb.wtf



    28-02-2016 11:33 Проклятие ведьминого дерева Скачать торрент  

    И снова тема сисег pb.wtf



    28-02-2016 11:54 Проклятие ведьминого дерева Скачать торрент  

    Linch писал(а):

    Они там, что весь фильм в ванной валяются.


    О том же подумал.pb.wtf



    28-02-2016 13:54 Проклятие ведьминого дерева Скачать торрент  

    Люблю бред..pb.wtf



    28-02-2016 17:29 Проклятие ведьминого дерева Скачать торрент  

    Ворон, со всем уважением, но "Емья переезжает на новую ферму".... pb.wtf
    !Ворон писал(а):

    Спасибо.



    28-02-2016 19:19 Проклятие ведьминого дерева Скачать торрент  

    Все нормально тема сисек раскрыта!pb.wtf



    29-02-2016 18:53 Проклятие ведьминого дерева Скачать торрент  

    Как фильм то? Смотреть можно?pb.wtf



    02-03-2016 09:40 Проклятие ведьминого дерева Скачать торрент  

    Сисечки в ванной - это уже что-то новое. Фильм точно новинка)pb.wtf



    03-03-2016 13:19 Проклятие ведьминого дерева Скачать торрент  

    ШЛЯПА полная!!!!!по 10-ти бальной шкале только 3 балла и те за Сисечки!! pb.wtf



      Дорогой пользователь! Огромная просьба, поблагодарите релизера, оцените раздачу и оставьте свои комментарий, если Вы скачали Проклятие ведьминого дерева через торрент бесплатно! Внесите свою лепту в развитие PiratBit!
      Комментировать посты могут только пользователи прошедшие не сложную регистрацию
      Показать сообщения:    

      Проклятие ведьминого дерева через торрент
      Скачать бесплатно Проклятие ведьминого дерева
      Проклятие ведьминого дерева скачать торрент
      Проклятие ведьминого дерева смотреть онлайн
      Cкачать фильм Проклятие ведьминого дерева бесплатно
      Проклятие ведьминого дерева скачать торрент в хорошем качестве
      Проклятие ведьминого дерева смотреть онлайн бесплатно в хорошем качестве


      Вы не можете начинать темы
      Вы не можете отвечать на сообщения
      Вы не можете редактировать свои сообщения
      Вы не можете удалять свои сообщения
      Вы не можете голосовать в опросах
      Вы не можете прикреплять файлы к сообщениям
      Вы можете скачивать файлы