MEGA NEWS Получи личный уникальный адрес сайта и защити себя от блокировок. Внимание количество ограничено!!!

iTunes

1+1

iTunes

мы

iTunes

1

iTunes

Чернобыль

iTunes

Ральф против интернета

Лицензия

ПШазам

Лицензия

Игра престолов

Лицензия

30
pack

ВАЖНО

!!Акция!!

Alien_RageХит недели

RePack

Resident Evil 21

ИГРА 18+

pack

RePack

Metro:Exodus

!!Акция!!

Alien_Rage

RePack

fifa19

RePack

Assassins Creed: Odyssey

RePack

NEED FOR SPEED™ PAYBACK

3 сезон

9 сезон

Бесстыжие 9 сезон

Все сериалы

все сериалы на PB.wtf

RePack

FAR CRY 5
Ребята, катастрофически не хватает 1900р. для оплаты серверов за АВГУСТ (всвязи с блокировками трафик упал в 3 раза), 1-2р., выручайте.
  

Пик-Пик / Pouic-Pouic (Жан Жиро / Jean Girault) [1963, Франция, комедия, SATRip,Профессиональный многоголосый] pb.wtf

Пик-Пик через торрент pb.wtf

Качают: 1 [ 0 KB/s ]
Размер: 1.48 GB | Добавлен: 3 года 7 мес. назад | Торрент скачан:20 раз
Скачать  

28-02-2016 23:46 Пик-Пик Скачать торрент  

Пик-Пик / Pouic-Pouic

Год выпуска: 1963
Страна: Франция
Жанр: комедия
Продолжительность: 01:23:17
Перевод: Профессиональный многоголосый
Субтитры: Нет
Режиссер: Жан Жиро / Jean Girault
В ролях: Луи де Фюнес (Léonard Monestier), Мирей Дарк (Patricia), Роже Дюма (Paul), Жаклин Майян (Cynthia Monestier, la femme de Léonard), Кристиан Марен (Charles), Филипп Нико (Simon Guilbaud), Ги Трежан (Antoine Brevin), Даниэль Секкальди (Castelli), Мария-Роза Родригез (Palma Diamantino), Ив Барсак (Mario, un valet de Brévin, в титрах не указан), Филипп Дюма (Monsieur Morrison (scène de la Bourse), в титрах не указан)
Описание:
Патриция невероятно устала от Антуана, своего 40-летнего обожателя, засыпающего ее дорогими подарками. Чтобы избавиться от него, она решает завести себе мужа, но только для платонических отношений. Эту роль Патриция предлагает молодому шоферу, который как раз доставил ей очередной подарок Антуана.
Родители невесты, тяжело переживающие в это время неудачную покупку несуществующих нефтяных месторождений на берегах Ориноко, приходят в ужас от выбора дочери. Спокойная жизнь семейства превращается в сумасшедший дом.
Рейтинг
kinopoisk.ru: 7.435 (433)
imdb.com: 6.50 (1002)
Качество: SATRip
Формат: AVI
Видео кодек: XviD
Аудио кодек:AC3
Видео: XviD, 720x400 (16:9), 2147 kbps, 25 fps, 0,298 bpp (фильм цветной)
Аудио №1: AC3 / 2.0 / 48 kHz / 192 kbps / 16 bit русский
Аудио №2: AC3 / 2.0 / 48 kHz / 192 kbps / 16 bit оригинал
Оказывается, существует фильм, предвосхитивший бесподобную уморительную суету моего самого любимого фильма с Луи де Фюнесом «Оскар», и фильм этот — «Пик-пик».

Фильм великолепен, он блещет самыми яркими красками таланта Луи де Фюнеса и других совсем молодых тогда французских актеров. Надо же, прошло уже больше 50 лет, а этот фильм все еще способен восхищать и вызывать смех, впрочем, комедии положений никогда не останутся без зрителей.

Это классика мирового кино с участием великого Луи Де Фюнеса, которую стоит видеть и хранить как самое настоящее достояние и сокровище, тем более, что поставлена она самым любимым режиссером де Фюнеса Жаном Жиро, а у него великий комик выкладывался всегда полностью!Помимо самого Фюнеса здесь своими ролями выделились и другие талантливые актеры, например, Мирей Дарк, Роже Дюма, Жаклин Майян, Филипп Нико и, конечно же, тот самый лопоухий дворецкий Кристиан Марен. Именно такие фильмы помогают жить и спасают от всего окружающего негатива.

Вообщем, если вы поклонники настоящей французской комедии, этот фильм вам просто НАДО посмотреть, тем более, если вы не видели «Оскара», — он хоть и лучше «Пик-пика», но в «Пик-пике» вы можете увидеть молоденькую и потрясающе красивую Мирей Дарк, которая позже сводила с ума миллионы мужчин в СССР своей прелестной спинкой в «Высоком блондине».

Общее
Полное имя : D:\torrent\Pik.Pik.1963.XviD.SATrip.Сvetnoy.avi
Формат : AVI
Формат/Информация : Audio Video Interleave
Размер файла : 1,48 Гбайт
Продолжительность : 1 ч. 23 м.
Общий поток : 2546 Кбит/сек
Режиссёр : SATrip by Animat (fenixclub.com)
Программа кодирования : VirtualDubModRus 1.5.10.2 (build 2542/release)
Библиотека кодирования : VirtualDubMod build 2542/release

Видео
Идентификатор : 0
Формат : MPEG-4 Visual
Профиль формата : Advanced Simple@L5
Параметр BVOP формата : 2
Параметр QPel формата : Нет
Параметр GMC формата : Без точки перехода
Параметр матрицы формата : Default (MPEG)
Режим смешивания : Сжатый битовый поток
Идентификатор кодека : XVID
Идентификатор кодека/Подсказка : XviD
Продолжительность : 1 ч. 23 м.
Битрейт : 2148 Кбит/сек
Ширина : 720 пикселей
Высота : 400 пикселей
Соотношение сторон : 16:9
Частота кадров : 25,000 кадров/сек
Цветовое пространство : YUV
Субдискретизация насыщенности : 4:2:0
Битовая глубина : 8 бит
Тип развёртки : Прогрессивная
Метод сжатия : С потерями
Бит/(Пиксели*Кадры) : 0.298
Размер потока : 1,25 Гбайт (84%)
Библиотека кодирования : XviD 1.2.1 (UTC 2008-12-04)

Аудио #1
Идентификатор : 1
Формат : AC-3
Формат/Информация : Audio Coding 3
Расширение режима : CM (complete main)
Параметр Endianness формата : Big
Идентификатор кодека : 2000
Продолжительность : 1 ч. 23 м.
Вид битрейта : Постоянный
Битрейт : 192 Кбит/сек
Каналы : 2 канала
Расположение каналов : Front: L R
Частота : 48,0 КГц
Битовая глубина : 16 бит
Метод сжатия : С потерями
Размер потока : 114 Мбайт (8%)
Выравнивание : Разделение по промежуткам
Продолжительность промежутка : 40 мс. (1,00 видеокадр)
Время предзагрузки промежутка : 500 мс.
Заголовок : - Многоголосый

Аудио #2
Идентификатор : 2
Формат : AC-3
Формат/Информация : Audio Coding 3
Расширение режима : CM (complete main)
Параметр Endianness формата : Big
Идентификатор кодека : 2000
Продолжительность : 1 ч. 23 м.
Вид битрейта : Постоянный
Битрейт : 192 Кбит/сек
Каналы : 2 канала
Расположение каналов : Front: L R
Частота : 48,0 КГц
Битовая глубина : 16 бит
Метод сжатия : С потерями
Размер потока : 114 Мбайт (8%)
Выравнивание : Разделение по промежуткам
Продолжительность промежутка : 40 мс. (1,00 видеокадр)
Время предзагрузки промежутка : 500 мс.
Заголовок : - Французский (оригинал)





pb.wtf



Скачать Пик-Пик через торрент http://pic.kartinco.top/images/11/s3gzp.jpg Скачать фильм Пик-Пик через торрент бесплантно в хорошем качестве Описание: Патриция невероятно устала от Антуана, своего 40-летнего обожателя, засыпающего ее дорогими подарками. Чтобы избавиться от него, ... 10 10 3
Info! Золотая раздача, скачанное не засчитывается.
Торрент: Зарегистрирован [2016-02-28 23:46] · скачан: 20 раз
Статус: √ проверено
Размер: 1.48 GB
Как cкачать? Как скачать Пик-Пик через торрент | qTorrent

% Раздел Тема Автор DL S | L
Фильмы [HD 720p, 1080p] (Хороший звук DUB, MVO) [ 4.12 GB ] Покемон. Пикачу / Pokémon Detective Pikachu [2019 BDRip 720p] DUB [] +2xMVO [СВ Студия HDrezka Studio] bober100 Скачать
5 | 0
Фильмы (Blu-ray, BD-Remux, HDDVD) [ 43.36 GB ] Покемон. Пикачу / Pokémon Detective Pikachu [2019 Blu-ray EUR 1080p] DUB [] bober100 Скачать
1 | 0
Фильмы (HD 720p, 1080p) (48-60 fps) [ 20.92 GB ] Покемон. Пикачу / Pokémon Detective Pikachu [2019 BDRip 1080p 60 fps] [] sheker187 Скачать
7 | 0
3D Фильмы [ 22.53 GB ] Покемон. Пикачу в 3Д / Pokémon Detective Pikachu 3D [2019 семейн BDRip 1080p] OverUnder / Вертикальная стереопара serega768 Скачать
1 | 0
3D Фильмы [ 9.69 GB ] Покемон. Пикачу 3Д / Pokémon Detective Pikachu 3D [2019 BDRip 1080p] [Half OverUnder] DUB [] bober100 Скачать
4 | 0
Фильмы (HD 720p, 1080p) (48-60 fps) [ 5.86 GB ] Покемон. Пикачу / Pokémon Detective Pikachu [2019 BDRip-HEVC 10bit 1080p 60fps Dub MVO Original] Tiberiumsun69 Скачать
329 | 29
Фильмы 2019 [DVDrip, WEB-DLRip, HDrip] (DUB, MVO) [ 771 MB ] Покемон. Пикачу / Pokémon Detective Pikachu [2019 BDRip] DUB [] bober100 Скачать
5 | 0


>> Регистрируемся здесь <<






Отзывы и комментарии о схеме читаем и пишем здесь: ---> Отзывы и комментарии о схеме

Новые благодарочки в телеграм довольных пользователей:
скриншот   скриншот   скриншот   скриншот   скриншот
    Дорогой пользователь! Огромная просьба, поблагодарите релизера, оцените раздачу и оставьте свои комментарий, если Вы скачали Пик-Пик через торрент бесплатно! Внесите свою лепту в развитие PiratBit!
    Комментировать посты могут только пользователи прошедшие не сложную регистрацию
    Показать сообщения:    

    Пик-Пик через торрент
    Скачать бесплатно Пик-Пик
    Пик-Пик скачать торрент
    Пик-Пик смотреть онлайн
    Cкачать фильм Пик-Пик бесплатно
    Пик-Пик скачать торрент в хорошем качестве
    Пик-Пик смотреть онлайн бесплатно в хорошем качестве


    Вы не можете начинать темы
    Вы не можете отвечать на сообщения
    Вы не можете редактировать свои сообщения
    Вы не можете удалять свои сообщения
    Вы не можете голосовать в опросах
    Вы не можете прикреплять файлы к сообщениям
    Вы можете скачивать файлы