Ссылка на приватное зеркало нашего сайта всего за 1$. Внимание количество ограничено!!!

2 сезон

iTunes

1 сезон

1

iTunes

iTunes

iTunes

1 сезон

RePack

30

ИГРА 18+

pack

ВАЖНО

!!Акция!!

Alien_RageХит недели

RePack

MK11
pack

Забери бонус

RePack

jed

!!Акция!!

Alien_Rage

RePack

fifa19

RePack

Assassins Creed: Odyssey

RePack

NEED FOR SPEED™ PAYBACK

4 сезон

9 сезон

Бесстыжие 9 сезон

Все сериалы

все сериалы на PB.wtf

RePack

FAR CRY 5
  

Аквариум / Fish Tank (Андреа Арнольд) [2009, драма, BDRip 720p by msltel] MVO pb.wtf

Аквариум через торрент pb.wtf

Размер: 4.55 GB | Добавлен: 4 года 7 мес. назад | Торрент скачан:83 раза
Скачать  

29-02-2016 08:13 Аквариум Скачать торрент  

Название: Аквариум
Оригинальное название: Fish Tank
Год выпуска: 2009
Страна: Великобритания, Нидерланды
Жанр: драма
Продолжительность: 02:03:01
Перевод: профессиональный многоголосый

Режиссёр: Андреа Арнольд

В ролях: Кэти Джарвис, Майкл Фассбендер, Кирстон Вэрэйнг, Ребекка Гриффитс, Гарри Тредэвэй, Сидни Мэри Нэш, Кэрри-Энн Сэвилл, Тойин Огиди, Грант Вайлд, Сара Бэйс, Шарлотта Коллинз, Кирсти Смит, Челси Чейз, Брук Хобби, Джейсон Мацца, Алан Френсис, Бен Френсис, Джек Гордон, Сайрус, Майкл Прайор, Дэйв Хоули, Лиза Махони, Сара Коунселл, Сунанда Бисвас, Гэвин Купер, Амир Салим, Джоди Шредер, Стелла Макгоун, Энтони Гири, Джоэнна Хортон, Чарли Бэйкер, Джофф МакКрекен, Вэл Кинг, Рэкуэл Томас, Наташа Илич, Максин Броган, Кирсти Пейдж, Джорджина Крэйн, Сидни Нэш

Описание: 15-летняя Мия проблемный ребенок. Её исключили из школы, а друзья подвергают издевательствам. Одним жарким летним днём её мать приводит домой загадочного незнакомца, чьё появление обещает изменить их жизнь и научить семью тому, что такое любовь...



Качество: BDRip 720p
Формат: MKV
Видео: MPEG-4 AVC, 4396 Kбит/с, 958x720, 23,976 кадра/с
Аудио 1: русский, AC3, 448 kbps, 6 ch, 48 kHz [профессиональный многоголосый]
Аудио 2: английский, AC3, 448 kbps, 6 ch, 48 kHz [оригинал]
Субтитры 1: русские
Субтитры 2: английские
Общее
Уникальный идентификатор : 170306127377378824868999309378104962651 (0x801FC45CEBF22C4681B0FAF8FAB9AE5B)
Полное имя : D:\Video\Аквариум.2009.BDRip.720p.mkv
Формат : Matroska
Версия формата : Version 4 / Version 2
Размер файла : 4,55 Гбайт
Продолжительность : 2 ч. 3 м.
Общий поток : 5294 Кбит/сек
Дата кодирования : UTC 2016-02-28 04:15:34
Программа кодирования : mkvmerge v8.2.0 ('World of Adventure') 64bit
Библиотека кодирования : libebml v1.3.1 + libmatroska v1.4.2

Видео
Идентификатор : 1
Формат : AVC
Формат/Информация : Advanced Video Codec
Профиль формата : High@L4.1
Параметр CABAC формата : Да
Параметр ReFrames формата : 9 кадров
Идентификатор кодека : V_MPEG4/ISO/AVC
Продолжительность : 2 ч. 3 м.
Битрейт : 4396 Кбит/сек
Ширина : 958 пикселей
Высота : 720 пикселей
Соотношение сторон : 4:3
Режим частоты кадров : Постоянный
Частота кадров : 23,976 (24000/1001) кадра/сек
Цветовое пространство : YUV
Субдискретизация насыщенности : 4:2:0
Битовая глубина : 8 бит
Тип развёртки : Прогрессивная
Бит/(Пиксели*Кадры) : 0.266
Размер потока : 3,78 Гбайт (83%)
Библиотека кодирования : x264 core 146 r2538 121396c
Настройки программы : cabac=1 / ref=9 / deblock=1:-3:-3 / analyse=0x3:0x113 / me=umh / subme=10 / psy=1 / psy_rd=1.00:0.15 / mixed_ref=1 / me_range=32 / chroma_me=1 / trellis=2 / 8x8dct=1 / cqm=0 / deadzone=21,11 / fast_pskip=1 / chroma_qp_offset=-3 / threads=6 / lookahead_threads=1 / sliced_threads=0 / nr=0 / decimate=1 / interlaced=0 / bluray_compat=0 / constrained_intra=0 / bframes=9 / b_pyramid=2 / b_adapt=2 / b_bias=0 / direct=1 / weightb=1 / open_gop=0 / weightp=2 / keyint=230 / keyint_min=23 / scenecut=40 / intra_refresh=0 / rc_lookahead=40 / rc=crf / mbtree=0 / crf=19.5 / qcomp=0.60 / qpmin=0 / qpmax=69 / qpstep=4 / vbv_maxrate=40000 / vbv_bufsize=50000 / crf_max=0.0 / nal_hrd=none / filler=0 / ip_ratio=1.40 / pb_ratio=1.30 / aq=1:1.00
Язык : English
Default : Да
Forced : Нет

Аудио #1
Идентификатор : 2
Формат : AC-3
Формат/Информация : Audio Coding 3
Расширение режима : CM (complete main)
Параметр Endianness формата : Big
Идентификатор кодека : A_AC3
Продолжительность : 2 ч. 3 м.
Вид битрейта : Постоянный
Битрейт : 448 Кбит/сек
Каналы : 6 каналов
Расположение каналов : Front: L C R, Side: L R, LFE
Частота : 48,0 КГц
Частота кадров : 31,250 кадров/сек (1536 spf)
Метод сжатия : С потерями
Размер потока : 394 Мбайт (8%)
Заголовок : MVO
Язык : Russian
Default : Да
Forced : Нет

Аудио #2
Идентификатор : 3
Формат : AC-3
Формат/Информация : Audio Coding 3
Расширение режима : CM (complete main)
Параметр Endianness формата : Big
Идентификатор кодека : A_AC3
Продолжительность : 2 ч. 3 м.
Вид битрейта : Постоянный
Битрейт : 448 Кбит/сек
Каналы : 6 каналов
Расположение каналов : Front: L C R, Side: L R, LFE
Частота : 48,0 КГц
Частота кадров : 31,250 кадров/сек (1536 spf)
Метод сжатия : С потерями
Размер потока : 394 Мбайт (8%)
Заголовок : Original
Язык : English
Default : Нет
Forced : Нет

Текст #1
Идентификатор : 4
Формат : UTF-8
Идентификатор кодека : S_TEXT/UTF8
Идентификатор кодека/Информация : UTF-8 Plain Text
Продолжительность : 1 ч. 59 м.
Битрейт : 46 бит/сек
Count of elements : 726
Размер потока : 40,9 Кбайт (0%)
Заголовок : русский
Язык : Russian
Default : Нет
Forced : Нет

Текст #2
Идентификатор : 5
Формат : UTF-8
Идентификатор кодека : S_TEXT/UTF8
Идентификатор кодека/Информация : UTF-8 Plain Text
Продолжительность : 1 ч. 57 м.
Битрейт : 29 бит/сек
Count of elements : 830
Размер потока : 25,2 Кбайт (0%)
Заголовок : английский
Default : Нет
Forced : Нет
pb.wtf



Скачать Аквариум через торрент http://s017.radikal.ru/i442/1602/db/51228bca38bd.png Скачать фильм Аквариум через торрент бесплантно в хорошем качестве Описание: 15-летняя Мия проблемный ребенок. Её исключили из школы, а друзья подвергают издевательствам. Одним жарким летним днём её мать ... 9.6 10 7
Info! Золотая раздача, скачанное не засчитывается.
Торрент: Зарегистрирован [2016-02-29 08:13] · скачан: 83 раз
Статус: √ проверено
Размер: 4.55 GB
Как cкачать? Как скачать Аквариум через торрент | qTorrent

% Раздел Тема Автор DL S | L
Фильмы [HD 720p, 1080p] (Хороший звук DUB, MVO) [ 14.15 GB ] Аквариум / Fish Tank [2009 BDRip 1080p by msltel] MVO msltel Скачать
1 | 0

28-11-2019 20:33  

Отключить всю рекламу на сайте

29-02-2016 09:19 Аквариум Скачать торрент  

Подарок киноману)pb.wtf



    Дорогой пользователь! Огромная просьба, поблагодарите релизера, оцените раздачу и оставьте свои комментарий, если Вы скачали Аквариум через торрент бесплатно! Внесите свою лепту в развитие PiratBit!
    Комментировать посты могут только пользователи прошедшие не сложную регистрацию
    Показать сообщения:    

    Аквариум через торрент
    Скачать бесплатно Аквариум
    Аквариум скачать торрент
    Аквариум смотреть онлайн
    Cкачать фильм Аквариум бесплатно
    Аквариум скачать торрент в хорошем качестве
    Аквариум смотреть онлайн бесплатно в хорошем качестве


    Вы не можете начинать темы
    Вы не можете отвечать на сообщения
    Вы не можете редактировать свои сообщения
    Вы не можете удалять свои сообщения
    Вы не можете голосовать в опросах
    Вы не можете прикреплять файлы к сообщениям
    Вы можете скачивать файлы