MEGA SALE -50% FORZA HORIZON 4 ULTIMATE+ВСЕ DLC+ОНЛАЙН всего за 599р. 299 руб. (супер цена). Внимание количество ограничено!!!

iTunes

1+1

iTunes

мы

iTunes

1

iTunes

Чернобыль

iTunes

Ральф против интернета

Лицензия

ПШазам

Лицензия

Игра престолов

Лицензия

30
pack

ВАЖНО

!!Акция!!

Alien_RageХит недели

RePack

Resident Evil 21

ИГРА 18+

pack

RePack

Metro:Exodus

!!Акция!!

Alien_Rage

RePack

fifa19

RePack

Assassins Creed: Odyssey

RePack

NEED FOR SPEED™ PAYBACK

3 сезон

9 сезон

Бесстыжие 9 сезон

Все сериалы

все сериалы на PB.wtf

RePack

FAR CRY 5
Ребята, катастрофически не хватает 7730р. для оплаты серверов за АВГУСТ (всвязи с блокировками трафик упал в 3 раза), 1-2р., выручайте.
  

Школа воров / Scuola di ladri (Нери Паренти / Neri Parenti) [1986, Италия, комедия, DVDRip,Профессиональный многоголосый pb.wtf

Школа воров через торрент pb.wtf

Размер: 1.36 GB | Добавлен: 3 года 6 мес. назад | Торрент скачан:30 раз
Скачать  

29-02-2016 08:30 Школа воров Скачать торрент  

Школа воров / Scuola di ladri

Год выпуска: 1986
Страна: Италия
Жанр: комедия

Продолжительность: 01:33:30
Перевод: Профессиональный многоголосый
Субтитры: Нет
Режиссер: Нери Паренти / Neri Parenti
В ролях: Паоло Вилладжо (Dalmazio Siraghi), Лино Банфи (Amalio Siraghi), Массимо Болди (Egisto Siraghi), Энрико Мария Салерно (Alibrando Siraghi), Барбара Скоппа (Marisa Padovan), Эннио Антонелли (Finto prete), Антонио Барриос (Franco Nero), Клаудио Болди (La guardia), Коррадо Монтефорте (Minotti), Антонио Аллочча (Facoltoso contadino di Caserta)
Описание:
Троих неудачников-недотеп приглашает к себе незнакомец и предлагает обучиться воровскому ремеслу. На первом же «деле» воришки засыпаются и попадают в тюрьму.
После отсидки их дела идут успешнее, и дядя готовит для них «ограбление века» на 5 миллиардов! Но недотепы - они и в Африке недотепы. Даже с огромной суммой денег, которую не могут удержать...
Рейтинг
kinopoisk.ru: 7.578 (462)
imdb.com: 5.60 (745)
Качество: DVDRip
Формат: AVI
Видео кодек: XviD
Аудио кодек:AC3, MP3
Видео: XviD, 720x448 (1.607), 1805 kbps, 25 fps, 0,224 bpp
Аудио №1: русский / AC3 / 2.0 / 48 kHz / 128 kbps / 16 bit
Аудио №2: итальянский / MP3 / 2.0 / 48 kHz / 128 kbps
General
Complete name : D:\torrent\Школа воров.1.1986.DVDRip.avi
Format : AVI
Format/Info : Audio Video Interleave
File size : 1.36 GiB
Duration : 1h 33mn
Overall bit rate : 2 076 Kbps
Writing application : VirtualDubModRus 1.5.10.2 (build 2542/release)
Writing library : VirtualDubMod build 2542/release

Video
ID : 0
Format : MPEG-4 Visual
Format profile : Advanced Simple@L5
Format settings, BVOP : 2
Format settings, QPel : No
Format settings, GMC : No warppoints
Format settings, Matrix : Default (H.263)
Muxing mode : Packed bitstream
Codec ID : XVID
Codec ID/Hint : XviD
Duration : 1h 33mn
Bit rate : 1 806 Kbps
Width : 720 pixels
Height : 448 pixels
Display aspect ratio : 1.607
Frame rate : 25.000 fps
Color space : YUV
Chroma subsampling : 4:2:0
Bit depth : 8 bits
Scan type : Progressive
Compression mode : Lossy
Bits/(Pixel*Frame) : 0.224
Stream size : 1.18 GiB (87%)
Writing library : XviD 1.2.0.dev47 (UTC 2006-11-01)

Audio #1
ID : 1
Format : AC-3
Format/Info : Audio Coding 3
Mode extension : CM (complete main)
Codec ID : 2000
Duration : 1h 33mn
Bit rate mode : Constant
Bit rate : 128 Kbps
Channel(s) : 2 channels
Channel positions : Front: L R
Sampling rate : 48.0 KHz
Bit depth : 16 bits
Compression mode : Lossy
Stream size : 85.6 MiB (6%)
Alignment : Split accross interleaves
Interleave, duration : 40 ms (1.00 video frame)
Interleave, preload duration : 500 ms
Language : Russian

Audio #2
ID : 2
Format : MPEG Audio
Format version : Version 1
Format profile : Layer 3
Mode : Joint stereo
Mode extension : MS Stereo
Codec ID : 55
Codec ID/Hint : MP3
Duration : 1h 33mn
Bit rate mode : Constant
Bit rate : 128 Kbps
Channel(s) : 2 channels
Sampling rate : 48.0 KHz
Compression mode : Lossy
Stream size : 85.6 MiB (6%)
Alignment : Aligned on interleaves
Interleave, duration : 40 ms (1.00 video frame)
Interleave, preload duration : 504 ms





pb.wtf



Скачать Школа воров через торрент http://i2.imageban.ru/out/2016/02/29/f1d7f01e588e3f137349489d6f1703c7.jpg Скачать фильм Школа воров через торрент бесплантно в хорошем качестве Описание: Троих неудачников-недотеп приглашает к себе незнакомец и предлагает обучиться воровскому ремеслу. На первом же «деле» воришки ... 10 10 1
Торрент: Зарегистрирован [2016-02-29 08:30] · скачан: 30 раз
Статус: √ проверено
Размер: 1.36 GB
Как cкачать? Как скачать Школа воров через торрент | qTorrent



Последний раз редактировалось: jump88 (2016-02-29 11:55), всего редактировалось 1 раз


>> Регистрируемся здесь <<






Отзывы и комментарии о схеме читаем и пишем здесь: ---> Отзывы и комментарии о схеме

Новые благодарочки в телеграм довольных пользователей:
скриншот   скриншот   скриншот   скриншот   скриншот
    Дорогой пользователь! Огромная просьба, поблагодарите релизера, оцените раздачу и оставьте свои комментарий, если Вы скачали Школа воров через торрент бесплатно! Внесите свою лепту в развитие PiratBit!
    Комментировать посты могут только пользователи прошедшие не сложную регистрацию
    Показать сообщения:    

    Школа воров через торрент
    Скачать бесплатно Школа воров
    Школа воров скачать торрент
    Школа воров смотреть онлайн
    Cкачать фильм Школа воров бесплатно
    Школа воров скачать торрент в хорошем качестве
    Школа воров смотреть онлайн бесплатно в хорошем качестве


    Вы не можете начинать темы
    Вы не можете отвечать на сообщения
    Вы не можете редактировать свои сообщения
    Вы не можете удалять свои сообщения
    Вы не можете голосовать в опросах
    Вы не можете прикреплять файлы к сообщениям
    Вы можете скачивать файлы