MEGA NEWS Получи личный уникальный адрес сайта и защити себя от блокировок. Внимание количество ограничено!!!

iTunes

1+1

iTunes

мы

iTunes

1

iTunes

Чернобыль

iTunes

Ральф против интернета

Лицензия

ПШазам

Лицензия

Игра престолов

Лицензия

30
pack

ВАЖНО

!!Акция!!

Alien_RageХит недели

RePack

Resident Evil 21

ИГРА 18+

pack

RePack

Metro:Exodus

!!Акция!!

Alien_Rage

RePack

fifa19

RePack

Assassins Creed: Odyssey

RePack

NEED FOR SPEED™ PAYBACK

3 сезон

9 сезон

Бесстыжие 9 сезон

Все сериалы

все сериалы на PB.wtf

RePack

FAR CRY 5
Ребята, катастрофически не хватает 1900р. для оплаты серверов за АВГУСТ (всвязи с блокировками трафик упал в 3 раза), 1-2р., выручайте.
  

Школа воров 2 / Scuola di ladri - Parte seconda (Нери Паренти) [1987 г., комедия, DVDRip, Профессиональный (многоголосый)] pb.wtf

Школа воров 2 через торрент pb.wtf

Размер: 1.46 GB | Добавлен: 3 года 7 мес. назад | Торрент скачан:25 раз
Скачать  

29-02-2016 11:42 Школа воров 2 Скачать торрент  

Школа воров 2 / Scuola di ladri - Parte seconda
Год выпуска: 1987
Страна: Италия / C.G. Silver Film, Maura International Films, Reteitalia
Жанр: комедия
Продолжительность: 01:31:35
Перевод: Профессиональный (многоголосый)
Субтитры: зрителям, достигшим 16 лет

Режиссер: Нери Паренти
Продюссер: Марио Чекки Гори, Витторио Чекки Гори, Бруно Альтиссими
Сценарий: Франко Маротта, Лаура Тоскано, Нери Паренти

Премьера в мире: 22 сентября 1987

MPAA: 16+ зрителям, достигшим 16 лет
IMDb: 4.80 (363)
Кинопоиск: 7.280 323

В ролях: Паоло Вилладжо, Массимо Болди, Энрико Мария Салерно, Флоранс Герен, Джон Ричардсон, Дэниэл Ламберт, Романо Пуппо, Стефано Антонуччи, Клаудио Болди

Описание: Троица недотеп снова «в деле». Они опять встречают своего «ослепшего дядю» и под его руководством собираются ограбить корабль, на котором перевозят драгоценности. Заодно с дядей действует красавица Сюзанна.

Качество: DVDRip
Формат: AVI
Видео кодек: XviD
Аудио кодек: AC3
Видео: 640x400 (1.60:1), 25 fps, XviD Final 1.0.2 (build 36) ~2144 kbps avg, 0.34 bit/pixel
Аудио#1: 48 kHz, AC3 Dolby Digital, 2/0 (L,R) ch, ~128 kbps




Общее
Полное имя : D:\torrent\Школа воров.2.1987.DVDRip.avi
Формат : AVI
Формат/Информация : Audio Video Interleave
Размер файла : 1,46 Гбайт
Продолжительность : 1 ч. 31 м.
Общий поток : 2279 Кбит/сек
Программа кодирования : VirtualDubMod 1.5.4.1 (build 2178/release)
Библиотека кодирования : VirtualDubMod build 2178/release

Видео
Идентификатор : 0
Формат : MPEG-4 Visual
Профиль формата : Simple@L3
Параметр BVOP формата : 1
Параметр QPel формата : Нет
Параметр GMC формата : Без точки перехода
Параметр матрицы формата : Выборочная
Идентификатор кодека : XVID
Идентификатор кодека/Подсказка : XviD
Продолжительность : 1 ч. 31 м.
Битрейт : 2144 Кбит/сек
Ширина : 640 пикселей
Высота : 400 пикселей
Соотношение сторон : 16:10
Частота кадров : 25,000 кадров/сек
Цветовое пространство : YUV
Субдискретизация насыщенности : 4:2:0
Битовая глубина : 8 бит
Тип развёртки : Прогрессивная
Метод сжатия : С потерями
Бит/(Пиксели*Кадры) : 0.335
Размер потока : 1,37 Гбайт (94%)
Библиотека кодирования : XviD 1.0.2 (UTC 2004-08-29)

Аудио
Идентификатор : 1
Формат : AC-3
Формат/Информация : Audio Coding 3
Расширение режима : CM (complete main)
Параметр Endianness формата : Big
Идентификатор кодека : 2000
Продолжительность : 1 ч. 31 м.
Вид битрейта : Постоянный
Битрейт : 128 Кбит/сек
Каналы : 2 канала
Расположение каналов : Front: L R
Частота : 48,0 КГц
Битовая глубина : 16 бит
Метод сжатия : С потерями
Размер потока : 83,8 Мбайт (6%)
Выравнивание : Разделение по промежуткам
Продолжительность промежутка : 96 мс. (2,40 видеокадра)
Время предзагрузки промежутка : 96 мс.
Язык : Russian

pb.wtf



Скачать Школа воров 2 через торрент http://pic.kartinco.top/images/11/k7vrf.jpg Скачать фильм Школа воров 2 через торрент бесплантно в хорошем качестве Описание: Троица недотеп снова «в деле». Они опять встречают своего «ослепшего дядю» и под его руководством собираются ограбить корабль, на ... 10 10 1
Торрент: Зарегистрирован [2016-02-29 11:42] · скачан: 25 раз
Статус: √ проверено
Размер: 1.46 GB
Как cкачать? Как скачать Школа воров 2 через торрент | qTorrent



Последний раз редактировалось: jump88 (2016-02-29 11:55), всего редактировалось 1 раз


>> Регистрируемся здесь <<






Отзывы и комментарии о схеме читаем и пишем здесь: ---> Отзывы и комментарии о схеме

Новые благодарочки в телеграм довольных пользователей:
скриншот   скриншот   скриншот   скриншот   скриншот
    Дорогой пользователь! Огромная просьба, поблагодарите релизера, оцените раздачу и оставьте свои комментарий, если Вы скачали Школа воров 2 через торрент бесплатно! Внесите свою лепту в развитие PiratBit!
    Комментировать посты могут только пользователи прошедшие не сложную регистрацию
    Показать сообщения:    

    Школа воров 2 через торрент
    Скачать бесплатно Школа воров 2
    Школа воров 2 скачать торрент
    Школа воров 2 смотреть онлайн
    Cкачать фильм Школа воров 2 бесплатно
    Школа воров 2 скачать торрент в хорошем качестве
    Школа воров 2 смотреть онлайн бесплатно в хорошем качестве


    Вы не можете начинать темы
    Вы не можете отвечать на сообщения
    Вы не можете редактировать свои сообщения
    Вы не можете удалять свои сообщения
    Вы не можете голосовать в опросах
    Вы не можете прикреплять файлы к сообщениям
    Вы можете скачивать файлы