Ссылка на приватное зеркало нашего сайта всего за 1$. Внимание количество ограничено!!!

2 сезон

iTunes

1 сезон

1

iTunes

iTunes

iTunes

1 сезон

RePack

30

ИГРА 18+

pack

ВАЖНО

!!Акция!!

Alien_RageХит недели

RePack

MK11
pack

Забери бонус

RePack

jed

!!Акция!!

Alien_Rage

RePack

fifa19

RePack

Assassins Creed: Odyssey

RePack

NEED FOR SPEED™ PAYBACK

4 сезон

9 сезон

Бесстыжие 9 сезон

Все сериалы

все сериалы на PB.wtf

RePack

FAR CRY 5
  

Я плюю на ваши могилы / I Spit on Your Grave (Стивен Р. Монро / Steven R. Monroe) [2010, ужасы, триллер, криминал, BDRip-AVC от potroks] Dub pb.wtf

Я плюю на ваши могилы через торрент pb.wtf

Размер: 1.46 GB | Добавлен: 4 года 7 мес. назад | Торрент скачан:110 раз
Скачать  

29-02-2016 19:43 Я плюю на ваши могилы Скачать торрент  

Я плюю на ваши могилы / I Spit on Your Grave
«It's Date Night»
Год выпуска: 2010
Страна: США / Anchor Bay Films...
Жанр: ужасы, триллер, криминал
Продолжительность: 01:47:55
Перевод: Дубляж
Субтитры: русские
Навигация по главам: есть
Режиссер: Стивен Р. Монро / Steven R. Monroe
В ролях:

Сара Батлер (Jennifer), Джефф Брэнсон (Johnny), Эндрю Ховард (Storch), Дэниел Фрэнзиси (Stanley), Родни Истман (Andy), Чэд Линдберг (Matthew), Трейси Уолтер (Earl), Молли Миллиган (Mrs. Storch), Саксон Шарбино (Chastity), Эмбер Даун Лэндрум (Girl at Gas Station), Мишель Лотт (Girl in Truck, в титрах не указана)
Описание: Молодая писательница Дженнифер снимает домик в глухом лесу, чтобы в уединении написать роман. Но издатель не дождется нового бестселлера... Четверо местных отморозков жестоко насилуют девушку и обрекают ее на мучительную смерть. Но Дженнифер сумела выжить и теперь ее единственная цель - месть. И месть эта будет столь ужасной, что бывшие насильники проклянут тот день, когда встретили ее впервые...

Качество: BDRip-AVC
Формат: MKV
Видео кодек: AVC
Аудио кодек: AC3
Видео: 960x540 (16:9), 1554 kbps, 24 fps, 0,125 bit/pixel
Аудио: AC3 / 5.1 / 48 kHz / 384 kbps / 16 bit

Релиз группы:
Автор рипа: potroks

Код:

Общее
Уникальный идентификатор : 176919698504394012987797309470186502752 (0x85197E9837B99D259D94E2E4FA917A60)
Полное имя : Ya.Pluyu.Na.Vashy.Mogily.2010.RUS.BDRip.x264.-HELLYWOOD.mkv
Формат : Matroska
Версия формата : Version 4 / Version 2
Размер файла : 1,46 Гбайт
Продолжительность : 1 ч. 47 м.
Общий поток : 1940 Кбит/сек
Название фильма : I Spit on Your Grave (2010) - HELLYWOOD
Дата кодирования : UTC 2016-02-29 19:15:53
Программа кодирования : mkvmerge v5.9.0 ('On The Loose') built on Dec 15 2012 16:39:58
Библиотека кодирования : libebml v1.3.0 + libmatroska v1.4.0

Видео
Идентификатор : 1
Формат : AVC
Формат/Информация : Advanced Video Codec
Профиль формата : High@L4.1
Параметр CABAC формата : Да
Параметр ReFrames формата : 12 кадров
Идентификатор кодека : V_MPEG4/ISO/AVC
Продолжительность : 1 ч. 47 м.
Битрейт : 1554 Кбит/сек
Ширина : 960 пикселей
Высота : 540 пикселей
Соотношение сторон : 16:9
Режим частоты кадров : Постоянный
Частота кадров : 24,000 кадра/сек
Цветовое пространство : YUV
Субдискретизация насыщенности : 4:2:0
Битовая глубина : 8 бит
Тип развёртки : Прогрессивная
Бит/(Пиксели*Кадры) : 0.125
Размер потока : 1,14 Гбайт (78%)
Заголовок : potroks
Библиотека кодирования : x264 core 148 r2665M a01e339
Настройки программы : cabac=1 / ref=12 / deblock=1:-2:-2 / analyse=0x3:0x133 / me=umh / subme=11 / psy=1 / psy_rd=1.05:0.10 / mixed_ref=1 / me_range=48 / chroma_me=1 / trellis=2 / 8x8dct=1 / cqm=0 / deadzone=21,11 / fast_pskip=0 / chroma_qp_offset=-3 / threads=9 / lookahead_threads=2 / sliced_threads=0 / nr=0 / decimate=1 / interlaced=0 / bluray_compat=0 / constrained_intra=0 / bframes=13 / b_pyramid=2 / b_adapt=2 / b_bias=0 / direct=3 / weightb=1 / open_gop=0 / weightp=2 / keyint=240 / keyint_min=23 / scenecut=40 / intra_refresh=0 / rc=2pass / mbtree=0 / bitrate=1554 / ratetol=1.0 / qcomp=0.70 / qpmin=0 / qpmax=69 / qpstep=4 / cplxblur=20.0 / qblur=0.5 / ip_ratio=1.35 / pb_ratio=1.25 / aq=1:0.80
Язык : English
Default : Да
Forced : Нет
Цветовой диапазон : Limited
Основные цвета : BT.709
Характеристики трансфера : BT.709
Коэффициенты матрицы : BT.709

Аудио
Идентификатор : 2
Формат : AC-3
Формат/Информация : Audio Coding 3
Расширение режима : CM (complete main)
Параметр Endianness формата : Big
Идентификатор кодека : A_AC3
Продолжительность : 1 ч. 47 м.
Вид битрейта : Постоянный
Битрейт : 384 Кбит/сек
Каналы : 6 каналов
Расположение каналов : Front: L C R, Side: L R, LFE
Частота : 48,0 КГц
Метод сжатия : С потерями
Размер потока : 296 Мбайт (20%)
Заголовок : Dub | DD 5.1 @ 384 kbps - Blu-Ray
Язык : Russian
Default : Да
Forced : Нет

Текст
Идентификатор : 3
Формат : UTF-8
Идентификатор кодека : S_TEXT/UTF8
Идентификатор кодека/Информация : UTF-8 Plain Text
Язык : Russian
Default : Нет
Forced : Нет

Меню
00:00:00.000 : en:(01)00:00:00:000
00:10:14.416 : en:(02)00:10:14:416
00:18:23.166 : en:(03)00:18:23:166
00:33:16.208 : en:(04)00:33:16:208
00:49:36.416 : en:(05)00:49:36:416
01:04:32.166 : en:(06)01:04:32:166
01:17:10.041 : en:(07)01:17:10:041
01:35:47.750 : en:(08)01:35:47:750

pb.wtf



Скачать Я плюю на ваши могилы через торрент http://i76.fastpic.ru/big/2016/0229/31/57decc28f008abefc4415eed1872e431.png Скачать фильм Я плюю на ваши могилы через торрент бесплантно в хорошем качестве Описание: Молодая писательница Дженнифер снимает домик в глухом лесу, чтобы в уединении написать роман. Но издатель не дождется нового ... 8.9 10 8
Info! Золотая раздача, скачанное не засчитывается.
Торрент: Зарегистрирован [2016-02-29 19:43] · скачан: 110 раз
Статус: √ проверено
Размер: 1.46 GB
Как cкачать? Как скачать Я плюю на ваши могилы через торрент | qTorrent

% Раздел Тема Автор DL S | L
Сборники и Сиквелы (48-60 fps) [ 7.8 GB ] Я плюю на ваши могилы - Дилогия / I Spit on Your Grave - Dilogy [2010-2013 BDRip-AVC / 60fps DUB MVO] от R.G. HD-Films Ressident Скачать
1 | 0
Фильмы [HD 720p, 1080p] (Хороший звук DUB, MVO) [ 5.25 GB ] Я плюю на ваши могилы / I Spit on Your Grave [2010 BDRip 720p] DUB AVO / Unrated Open Matte msltel Скачать
1 | 0
Фильмы 2013 [DVDrip, WEB-DLRip, HDrip] [ 3.25 GB ] Я плюю на ваши могилы 2 / I Spit on Your Grave 2 [2013 HDRip-AVC] [MVO] [2xVO] [ENG] [SUB] Se7ven95 Скачать
1 | 0
Фильмы [HD 720p, 1080p] (Хороший звук DUB, MVO) [ 8.96 GB ] Я плюю на ваши могилы 2 / I Spit on Your Grave 2 [2013 BDRip 1080p DUB [Чистый звук] [Расширенная версия / Unrated Cut] Ворон Скачать
1 | 0
Фильмы 2013 (Звук TS, Cam, VO, DVO) [ 1.37 GB ] Я плюю на ваши могилы 2 / I Spit on Your Grave 2 [2013 HDRip DUB [Чистый звук] [Расширенная версия / Unrated Cut] Ворон Скачать
1 | 0

28-11-2019 20:33  

Отключить всю рекламу на сайте

    Дорогой пользователь! Огромная просьба, поблагодарите релизера, оцените раздачу и оставьте свои комментарий, если Вы скачали Я плюю на ваши могилы через торрент бесплатно! Внесите свою лепту в развитие PiratBit!
    Комментировать посты могут только пользователи прошедшие не сложную регистрацию
    Показать сообщения:    

    Я плюю на ваши могилы через торрент
    Скачать бесплатно Я плюю на ваши могилы
    Я плюю на ваши могилы скачать торрент
    Я плюю на ваши могилы смотреть онлайн
    Cкачать фильм Я плюю на ваши могилы бесплатно
    Я плюю на ваши могилы скачать торрент в хорошем качестве
    Я плюю на ваши могилы смотреть онлайн бесплатно в хорошем качестве


    Вы не можете начинать темы
    Вы не можете отвечать на сообщения
    Вы не можете редактировать свои сообщения
    Вы не можете удалять свои сообщения
    Вы не можете голосовать в опросах
    Вы не можете прикреплять файлы к сообщениям
    Вы можете скачивать файлы