Ссылка на приватное зеркало нашего сайта всего за 1$. Внимание количество ограничено!!!

2 сезон

iTunes

1 сезон

1

iTunes

iTunes

iTunes

1 сезон

RePack

30

ИГРА 18+

pack

ВАЖНО

!!Акция!!

Alien_RageХит недели

RePack

MK11
pack

Забери бонус

RePack

jed

!!Акция!!

Alien_Rage

RePack

fifa19

RePack

Assassins Creed: Odyssey

RePack

NEED FOR SPEED™ PAYBACK

4 сезон

9 сезон

Бесстыжие 9 сезон

Все сериалы

все сериалы на PB.wtf

RePack

FAR CRY 5
  

Строго на запад / Slow West (Джон Маклин / John Maclean) [2015, вестерн, драма, триллер, BDRip 720p от potroks] DUB Лицензия pb.wtf

Строго на запад через торрент pb.wtf

Размер: 4.37 GB | Добавлен: 4 года 7 мес. назад | Торрент скачан:107 раз
Скачать  

01-03-2016 17:12 Строго на запад Скачать торрент  

Строго на запад / Slow West
«Wanted dead or dead»
Год выпуска: 2015
Страна: Великобритания, Новая Зеландия / DMC Film, Film4, New Zealand Film Commission...
Жанр: вестерн, драма, триллер
Продолжительность: 01:24:00
Перевод: Дубляж [BD RUS], Авторский (одноголосый) [М.Чадов]
Субтитры: русские (полные + форс.), английские (Full + SDH)
Навигация по главам: есть
Режиссер: Джон Маклин / John Maclean
В ролях:

Коди Смит-МакФи (Jay Cavendish), Майкл Фассбендер (Silas Selleck), Бен Мендельсон (Payne), Аорере Паки (Young Native Boy), Хейден Фрост (Young Soldier 1), Карен Писториус (Rose Ross), Киран Чернок (Young Soldier 2), Эдвин Райт (Victor the Hawk), Джозеф Пасси (Congolese Singer 1), Эндрю Робертт (Werner), Сэм Манзанза (Congolese Singer 2), Таванда Маниймо (Congolese Singer 3)
Описание: История авантюриста по имени Сайлас, сопровождающего в опасном путешествии вдоль всей американской границы 16-летнего паренька по имени Джей Кавендиш. Джей разыскивает девушку, в которую влюблен.
Они пересеклись случайно, одинокий волк, отбившийся от волчьей стаи и заяц, оказавшийся в волчьем логове. Он мог дать ему умереть, мог убить, но не вцепился в горло, а пошёл с ним по следу, помогая найти затаившуюся где-то любовь, провожая через поля ненависти и леса страха, твёрдо, не решив, что делать дальше с ним и с собой.

Качество: BDRip-720p
Формат: MKV
Видео кодек: AVC
Аудио кодек: AC3
Видео: 1192x720 (5:3), 5537 kbps, 23,976 fps, 0.269 bit/pixel
Аудио №1: AC3 / 5.1 / 48 kHz / 640 kbps / 16 bit | DUB - Blu-Ray RUS
Аудио №2: AC3 / 5.1 / 48 kHz / 640 kbps / 16 bit | AVO - М.Чадов
Аудио №3: AC3 / 5.1 / 48 kHz / 640 kbps / 16 bit | ENG

Релиз группы:
Автор рипа: potroks

Код:

Общее
Уникальный идентификатор : 207347600127967953997101447792390655772 (0x9BFDB1F88484C58DA6392ED5B5C54F1C)
Полное имя : Strogo.na.Zapad.2015.TRIPLE.BDRip.720p.-HELLYWOOD.mkv
Формат : Matroska
Версия формата : Version 4 / Version 2
Размер файла : 4,37 Гбайт
Продолжительность : 1 ч. 24 м.
Общий поток : 7444 Кбит/сек
Название фильма : Slow West (2015) - HELLYWOOD
Дата кодирования : UTC 2016-03-01 16:41:16
Программа кодирования : mkvmerge v5.9.0 ('On The Loose') built on Dec 15 2012 16:39:58
Библиотека кодирования : libebml v1.3.0 + libmatroska v1.4.0

Видео
Идентификатор : 1
Формат : AVC
Формат/Информация : Advanced Video Codec
Профиль формата : High@L4.1
Параметр CABAC формата : Да
Параметр ReFrames формата : 9 кадров
Идентификатор кодека : V_MPEG4/ISO/AVC
Продолжительность : 1 ч. 24 м.
Битрейт : 5537 Кбит/сек
Ширина : 1192 пикселя
Высота : 720 пикселей
Соотношение сторон : 5:3
Режим частоты кадров : Постоянный
Частота кадров : 23,976 кадра/сек
Цветовое пространство : YUV
Субдискретизация насыщенности : 4:2:0
Битовая глубина : 8 бит
Тип развёртки : Прогрессивная
Бит/(Пиксели*Кадры) : 0.269
Размер потока : 3,15 Гбайт (72%)
Заголовок : potroks
Библиотека кодирования : x264 core 148 r2665M a01e339
Настройки программы : cabac=1 / ref=9 / deblock=1:-3:-3 / analyse=0x3:0x133 / me=umh / subme=11 / psy=1 / psy_rd=1.05:0.15 / mixed_ref=1 / me_range=48 / chroma_me=1 / trellis=2 / 8x8dct=1 / cqm=0 / deadzone=21,11 / fast_pskip=0 / chroma_qp_offset=-3 / threads=9 / lookahead_threads=2 / sliced_threads=0 / nr=0 / decimate=1 / interlaced=0 / bluray_compat=0 / constrained_intra=0 / bframes=11 / b_pyramid=2 / b_adapt=2 / b_bias=0 / direct=3 / weightb=1 / open_gop=0 / weightp=2 / keyint=240 / keyint_min=23 / scenecut=40 / intra_refresh=0 / rc=2pass / mbtree=0 / bitrate=5537 / ratetol=1.0 / qcomp=0.70 / qpmin=0 / qpmax=69 / qpstep=4 / cplxblur=20.0 / qblur=0.5 / ip_ratio=1.40 / pb_ratio=1.30 / aq=1:0.80
Язык : English
Default : Да
Forced : Нет

Аудио #1
Идентификатор : 2
Формат : AC-3
Формат/Информация : Audio Coding 3
Расширение режима : CM (complete main)
Параметр Endianness формата : Big
Идентификатор кодека : A_AC3
Продолжительность : 1 ч. 24 м.
Вид битрейта : Постоянный
Битрейт : 640 Кбит/сек
Каналы : 6 каналов
Расположение каналов : Front: L C R, Side: L R, LFE
Частота : 48,0 КГц
Метод сжатия : С потерями
Размер потока : 385 Мбайт (9%)
Заголовок : Dub| DD 5.1 @ 640 kbps - Blu-Ray RUS
Язык : Russian
Default : Да
Forced : Нет

Аудио #2
Идентификатор : 3
Формат : AC-3
Формат/Информация : Audio Coding 3
Расширение режима : CM (complete main)
Параметр Endianness формата : Big
Идентификатор кодека : A_AC3
Продолжительность : 1 ч. 24 м.
Вид битрейта : Постоянный
Битрейт : 640 Кбит/сек
Каналы : 6 каналов
Расположение каналов : Front: L C R, Side: L R, LFE
Частота : 48,0 КГц
Метод сжатия : С потерями
Размер потока : 385 Мбайт (9%)
Заголовок : AVO | DD 5.1 @ 640 kbps - M.Chadov
Язык : Russian
Default : Нет
Forced : Нет

Аудио #3
Идентификатор : 4
Формат : AC-3
Формат/Информация : Audio Coding 3
Расширение режима : CM (complete main)
Параметр Endianness формата : Big
Идентификатор кодека : A_AC3
Продолжительность : 1 ч. 24 м.
Вид битрейта : Постоянный
Битрейт : 640 Кбит/сек
Каналы : 6 каналов
Расположение каналов : Front: L C R, Side: L R, LFE
Частота : 48,0 КГц
Метод сжатия : С потерями
Размер потока : 385 Мбайт (9%)
Заголовок : Original | DD 5.1 @ 640 kbps
Язык : English
Default : Нет
Forced : Нет

Текст #1
Идентификатор : 5
Формат : UTF-8
Идентификатор кодека : S_TEXT/UTF8
Идентификатор кодека/Информация : UTF-8 Plain Text
Заголовок : Forced
Язык : Russian
Default : Да
Forced : Нет

Текст #2
Идентификатор : 6
Формат : UTF-8
Идентификатор кодека : S_TEXT/UTF8
Идентификатор кодека/Информация : UTF-8 Plain Text
Язык : Russian
Default : Нет
Forced : Нет

Текст #3
Идентификатор : 7
Формат : UTF-8
Идентификатор кодека : S_TEXT/UTF8
Идентификатор кодека/Информация : UTF-8 Plain Text
Заголовок : Full
Язык : English
Default : Нет
Forced : Нет

Текст #4
Идентификатор : 8
Формат : UTF-8
Идентификатор кодека : S_TEXT/UTF8
Идентификатор кодека/Информация : UTF-8 Plain Text
Заголовок : SDH
Язык : English
Default : Нет
Forced : Нет

Меню
00:00:00.000 : :(01)00:00:00:000
00:05:00.000 : :(02)00:05:00:000
00:10:00.000 : :(03)00:10:00:000
00:15:00.000 : :(04)00:15:00:000
00:20:00.000 : :(05)00:20:00:000
00:25:00.000 : :(06)00:25:00:000
00:30:00.000 : :(07)00:30:00:000
00:35:00.000 : :(08)00:35:00:000
00:40:00.000 : :(09)00:40:00:000
00:45:00.000 : :(10)00:45:00:000
00:50:00.000 : :(11)00:50:00:000
00:55:00.000 : :(12)00:55:00:000
01:00:00.000 : :(13)01:00:00:000
01:05:00.000 : :(14)01:05:00:000
01:10:00.000 : :(15)01:10:00:000
01:15:00.000 : :(16)01:15:00:000
01:20:00.000 : :(17)01:20:00:000

pb.wtf



Скачать Строго на запад через торрент http://i74.fastpic.ru/big/2016/0207/fb/092d7146f5cf00c1f31adf764f6996fb.png Скачать фильм Строго на запад через торрент бесплантно в хорошем качестве Описание: История авантюриста по имени Сайлас, сопровождающего в опасном путешествии вдоль всей американской границы 16-летнего паренька ... 5 10 1
Info! Золотая раздача, скачанное не засчитывается.
Торрент: Зарегистрирован [2016-03-01 17:12] · скачан: 107 раз
Статус: √ проверено
Размер: 4.37 GB
Как cкачать? Как скачать Строго на запад через торрент | qTorrent

% Раздел Тема Автор DL S | L
Фильмы [HD 720p, 1080p] (Хороший звук DUB, MVO) [ 9.82 GB ] Строго на запад / Slow West [2015 BDRip 1080p] DUB+AVO [] bober100 Скачать
1 | 0
Фильмы 2015 [DVDrip, WEB-DLRip, HDrip] [ 1.46 GB ] Строго на запад / Медленный Запад / Slow West [2015 BDRip] DUB Twi7ter Скачать
1 | 0
Фильмы (Blu-ray, BD-Remux, HDDVD) [ 23.01 GB ] Строго на запад / Slow West [2015 BDRemux] DUB AVO М.Чадов Russian Mafia Скачать
1 | 0
Фильмы 2015 [DVDrip, WEB-DLRip, HDrip] [ 1.42 GB ] Строго на запад / Медленный Запад / Slow West [2015 BDRip] Dub Twi7ter Скачать
1 | 1

28-11-2019 20:33  

Отключить всю рекламу на сайте

    Дорогой пользователь! Огромная просьба, поблагодарите релизера, оцените раздачу и оставьте свои комментарий, если Вы скачали Строго на запад через торрент бесплатно! Внесите свою лепту в развитие PiratBit!
    Комментировать посты могут только пользователи прошедшие не сложную регистрацию
    Показать сообщения:    

    Строго на запад через торрент
    Скачать бесплатно Строго на запад
    Строго на запад скачать торрент
    Строго на запад смотреть онлайн
    Cкачать фильм Строго на запад бесплатно
    Строго на запад скачать торрент в хорошем качестве
    Строго на запад смотреть онлайн бесплатно в хорошем качестве


    Вы не можете начинать темы
    Вы не можете отвечать на сообщения
    Вы не можете редактировать свои сообщения
    Вы не можете удалять свои сообщения
    Вы не можете голосовать в опросах
    Вы не можете прикреплять файлы к сообщениям
    Вы можете скачивать файлы