Ссылка на приватное зеркало всего за 1$. Внимание количество ограничено!!!

iTunes

iTunes

iTunes

1

iTunes

iTunes

iTunes

iTunes

iTunes

30
pack

$ от Little Big

ВАЖНО

!!Акция!!

Alien_RageХит недели

RePack

Resident Evil 21

ИГРА 18+

pack

RePack

jed

!!Акция!!

Alien_Rage

RePack

fifa19

RePack

Assassins Creed: Odyssey

RePack

NEED FOR SPEED™ PAYBACK

4 сезон

9 сезон

Бесстыжие 9 сезон

Все сериалы

все сериалы на PB.wtf

RePack

FAR CRY 5
  

Том Клэнси Подразделение: Начальный Агент / Tom Clancy's the Division: Agent Origins (Девин Грэхэм, Адриан Пикарди) [2016 г., боевик, короткометражка, WEBRip 720p, Любительский (одноголосый)] pb.wtf

Том Клэнси Подразделение: Начальный Агент через торрент pb.wtf

Размер: 1.43 GB | Добавлен: 4 года 4 мес. назад | Торрент скачан:461 раз
Скачать  

02-03-2016 05:37 Том Клэнси Подразделение: Начальный Агент Скачать торрент  

Том Клэнси Подразделение: Начальный Агент / Tom Clancy's the Division: Agent Origins
Год выпуска: 2016
Страна: США
Жанр: боевик, короткометражка
Продолжительность: 00:31:42
Перевод: Любительский (одноголосый) [Васька Куролесов по субтитрам Enigma]

Режиссер: Девин Грэхэм, Адриан Пикарди

В ролях: Саша Андреев, Аманда Дэй, Дэнни Мэйсон, Моника Скотт, Андреа Смит, Майкл Санг-Хо

Описание: Опустошительная эпидемия пронеслась через Нью-Йорк в Черную пятницу, попытки остановить эпидемию одна за одной терпят неудачу. В течение нескольких недель, общество рухнуло в хаос, и правительство активизирует подразделение для борьбы с эпидемией....

Качество: WEBRip 720p
Формат: MKV
Видео: AVC, 6200 Кбит/с, 1280x528, 25.000 fps
Аудио#1: AC-3, 2 ch, 256 Кбит/с, 48.0 KHz
Общее
Уникальный идентификатор : 253525716446841024942020173332960033719 (0xBEBB46E2C4DB297688FC336802FCBBB7)
Полное имя : D:\Скачанное\Tom.Clancys.the.Division.Agent.Origins.2016.720p.WEBRIP_KypoJIecoB.mkv
Формат : Matroska
Версия формата : Version 4 / Version 2
Размер файла : 1,43 Гбайт
Продолжительность : 31 м.
Общий поток : 6461 Кбит/сек
Дата кодирования : UTC 2016-03-01 11:15:06
Программа кодирования : mkvmerge v8.2.0 ('World of Adventure') 64bit
Библиотека кодирования : libebml v1.3.1 + libmatroska v1.4.2

Видео
Идентификатор : 1
Формат : AVC
Формат/Информация : Advanced Video Codec
Профиль формата : High@L4.1
Параметр CABAC формата : Да
Параметр ReFrames формата : 9 кадров
Идентификатор кодека : V_MPEG4/ISO/AVC
Продолжительность : 31 м.
Битрейт : 6200 Кбит/сек
Ширина : 1280 пикселей
Высота : 528 пикселей
Соотношение сторон : 2,40:1
Режим частоты кадров : Постоянный
Частота кадров : 25,000 кадров/сек
Цветовое пространство : YUV
Субдискретизация насыщенности : 4:2:0
Битовая глубина : 8 бит
Тип развёртки : Прогрессивная
Бит/(Пиксели*Кадры) : 0.367
Размер потока : 1,37 Гбайт (96%)
Библиотека кодирования : x264 core 142 r2479 dd79a61
Настройки программы : cabac=1 / ref=10 / deblock=1:-2:-2 / analyse=0x3:0x133 / me=umh / subme=10 / psy=1 / psy_rd=1.00:0.20 / mixed_ref=1 / me_range=48 / chroma_me=1 / trellis=2 / 8x8dct=1 / cqm=0 / deadzone=21,11 / fast_pskip=1 / chroma_qp_offset=-3 / threads=6 / lookahead_threads=1 / sliced_threads=0 / nr=400 / decimate=1 / interlaced=0 / bluray_compat=0 / constrained_intra=0 / bframes=9 / b_pyramid=1 / b_adapt=2 / b_bias=0 / direct=2 / weightb=1 / open_gop=0 / weightp=2 / keyint=250 / keyint_min=25 / scenecut=40 / intra_refresh=0 / rc_lookahead=60 / rc=2pass / mbtree=1 / bitrate=6200 / ratetol=1.0 / qcomp=0.60 / qpmin=0 / qpmax=69 / qpstep=4 / cplxblur=20.0 / qblur=0.5 / vbv_maxrate=62500 / vbv_bufsize=78125 / nal_hrd=none / filler=0 / ip_ratio=1.40 / aq=1:1.00
Default : Да
Forced : Нет
Цветовой диапазон : Limited
Основные цвета : BT.709
Характеристики трансфера : BT.709
Коэффициенты матрицы : BT.709

Аудио
Идентификатор : 2
Формат : AC-3
Формат/Информация : Audio Coding 3
Расширение режима : CM (complete main)
Параметр Endianness формата : Big
Идентификатор кодека : A_AC3
Продолжительность : 31 м.
Вид битрейта : Постоянный
Битрейт : 256 Кбит/сек
Каналы : 2 канала
Расположение каналов : Front: L R
Частота : 48,0 КГц
Частота кадров : 31,250 кадров/сек (1536 spf)
Метод сжатия : С потерями
Задержка видео : -80 мс.
Размер потока : 58,0 Мбайт (4%)
Заголовок : Васька Куролесов
Default : Да
Forced : Нет
скриншот   скриншот   скриншот   скриншот  
pb.wtf



Скачать Том Клэнси Подразделение: Начальный Агент через торрент http://pic1.kartinco.top/images/10/rs2l8.jpg Скачать фильм Том Клэнси Подразделение: Начальный Агент через торрент бесплантно в хорошем качестве Описание: Опустошительная эпидемия пронеслась через Нью-Йорк в Черную пятницу, попытки остановить эпидемию одна за одной терпят неудачу. В ... 8.4 10 14
Торрент: Зарегистрирован [2016-03-02 05:37] · скачан: 461 раз
Статус: T временная
Размер: 1.43 GB
Как cкачать? Как скачать Том Клэнси Подразделение: Начальный Агент через торрент | qTorrent

28-11-2019 20:33  

Отключить всю рекламу на сайте

02-03-2016 08:08 Том Клэнси Подразделение: Начальный Агент Скачать торрент  

Всем привет.А продолжение будет?pb.wtf



02-03-2016 08:27 Том Клэнси Подразделение: Начальный Агент Скачать торрент  

уже и фильм по игрушке сваяли. надо же, какие шустрые)pb.wtf



02-03-2016 08:38 Том Клэнси Подразделение: Начальный Агент Скачать торрент  

rainbow 6?pb.wtf



02-03-2016 12:52 Том Клэнси Подразделение: Начальный Агент Скачать торрент  

Написано же - The Divisionpb.wtf



02-03-2016 15:14 Том Клэнси Подразделение: Начальный Агент Скачать торрент  

Как там с графикой, не порезали?pb.wtf



02-03-2016 15:35 Том Клэнси Подразделение: Начальный Агент Скачать торрент  

перевод хрипит....pb.wtf



04-03-2016 07:39 Том Клэнси Подразделение: Начальный Агент Скачать торрент  

класс.ждём.pb.wtf



    Дорогой пользователь! Огромная просьба, поблагодарите релизера, оцените раздачу и оставьте свои комментарий, если Вы скачали Том Клэнси Подразделение: Начальный Агент через торрент бесплатно! Внесите свою лепту в развитие PiratBit!
    Комментировать посты могут только пользователи прошедшие не сложную регистрацию
    Показать сообщения:    

    Том Клэнси Подразделение: Начальный Агент через торрент
    Скачать бесплатно Том Клэнси Подразделение: Начальный Агент
    Том Клэнси Подразделение: Начальный Агент скачать торрент
    Том Клэнси Подразделение: Начальный Агент смотреть онлайн
    Cкачать фильм Том Клэнси Подразделение: Начальный Агент бесплатно
    Том Клэнси Подразделение: Начальный Агент скачать торрент в хорошем качестве
    Том Клэнси Подразделение: Начальный Агент смотреть онлайн бесплатно в хорошем качестве


    Вы не можете начинать темы
    Вы не можете отвечать на сообщения
    Вы не можете редактировать свои сообщения
    Вы не можете удалять свои сообщения
    Вы не можете голосовать в опросах
    Вы не можете прикреплять файлы к сообщениям
    Вы можете скачивать файлы