Ссылка на приватное зеркало всего за 1$. Внимание количество ограничено!!!

iTunes

iTunes

iTunes

1

iTunes

iTunes

iTunes

iTunes

iTunes

30
pack

$ от Little Big

ВАЖНО

!!Акция!!

Alien_RageХит недели

RePack

Resident Evil 21

ИГРА 18+

pack

RePack

jed

!!Акция!!

Alien_Rage

RePack

fifa19

RePack

Assassins Creed: Odyssey

RePack

NEED FOR SPEED™ PAYBACK

4 сезон

9 сезон

Бесстыжие 9 сезон

Все сериалы

все сериалы на PB.wtf

RePack

FAR CRY 5
  

Красный песок / Red Sand: A Mass Effect Fan Film (Caleb Evans) [2012, короткометражка, фантастика, боевик, WEBRip 1080p] DUB pb.wtf

Красный песок через торрент pb.wtf

Размер: 303 MB | Добавлен: 4 года 4 мес. назад | Торрент скачан:202 раза
Скачать  

02-03-2016 14:02 Красный песок Скачать торрент  

Красный песок / Red Sand: A Mass Effect Fan Film-

Год выпуска: 2012
Страна: США
Жанр: короткометражка, фантастика, боевик
Перевод: Дубляж
Длительность: 14мин. 14сек.
Роли озвучивали: Вячеслав Осипов, Евгений Подберезко, Надежда Серганова, Екатерина Дмитрова, Игорь Шлыков

Режиссер: Caleb Evans
Сценарий: Caleb Evans
Продюсер: Пол ДеНигрис, Саманта Хэммонд, Dave Bolman
Оператор: Jared Oppie
Композитор: Mattia Cupelli
Художник: Ariel Navarrete Spahn, Nola Yergen
Монтаж: Paul Rosario

В ролях: Марк Мир / Mark Meer (Colonel Grissom), Эми Сирси / Amy Searcy (Colonel Sandhurst), Айман Самман / Ayman Samman (Dr. Averroes), Jamil Abubakar (Miner), Chris Blackford (Marauder), Грег Бронсон / Greg Bronson (Red Sand Marauder Leader), Шэйн Дин / Shane Dean (Jenkins), Пол ДеНигрис / Paul DeNigris (Dr. Rush)


Описание: Долгожданный фан-фильм по вселенной Mass Effect - "Красный Песок". Он является приквелом к основной истории и события разворачиваются за 35 лет до того, как началась история Шепарда. Главную мужскую роль (полковника Гриссома) играет никто иной, как голос командора Шепарда. И вся эта красота дублирована на русский язык, силами нашей команды. Приятного просмотра!

Бюджет: $10 000
Премьера (мир): 7 октября 2012




Качество: WEBRip 1080p
Формат: MP4
Видео кодек: H.264
Аудио кодеk: AAC
Видео: MPEG-4 AVC, ~ 2715 Кбит/с, 24.000 fps, 1920x1080
Аудио: :AAC, 2 ch, 44.1 KHz, 254 Кбит/с


Релиз: от Energy

Код:

General
Complete name               : RED SAND? a Mass Effect fan film [RUS DUB].mp4
Format                      : MPEG-4
Format profile              : Base Media
Codec ID                    : isom (isom/iso2/avc1/mp41)
File size                   : 303 MiB
Duration                    : 14mn 14s
Overall bit rate            : 2 971 Kbps
Writing application         : Lavf57.2.100

Video
ID                          : 1
Format                      : AVC
Format/Info                 : Advanced Video Codec
Format profile              : High@L4
Format settings, CABAC      : Yes
Format settings, ReFrames   : 2 frames
Codec ID                    : avc1
Codec ID/Info               : Advanced Video Coding
Duration                    : 14mn 13s
Bit rate                    : 2 715 Kbps
Width                       : 1 920 pixels
Height                      : 1 080 pixels
Display aspect ratio        : 16:9
Frame rate mode             : Constant
Frame rate                  : 24.000 fps
Color space                 : YUV
Chroma subsampling          : 4:2:0
Bit depth                   : 8 bits
Scan type                   : Progressive
Bits/(Pixel*Frame)          : 0.055
Stream size                 : 276 MiB (91%)

Audio
ID                          : 2
Format                      : AAC
Format/Info                 : Advanced Audio Codec
Format profile              : LC
Codec ID                    : 40
Duration                    : 14mn 14s
Bit rate mode               : Constant
Bit rate                    : 254 Kbps
Channel(s)                  : 2 channels
Channel positions           : Front: L R
Sampling rate               : 44.1 KHz
Frame rate                  : 43.066 fps (1024 spf)
Compression mode            : Lossy
Stream size                 : 25.8 MiB (9%)
Default                     : Yes
Alternate group             : 1



pb.wtf



Скачать Красный песок через торрент http://i76.fastpic.ru/big/2016/0302/87/221f06133d9c8995a2d8f2578062d487.jpg Скачать фильм Красный песок через торрент бесплантно в хорошем качестве Описание: Долгожданный фан-фильм по вселенной Mass Effect - "Красный Песок". Он является приквелом к основной истории и события ... 8.9 10 8
Торрент: Зарегистрирован [2016-03-02 14:02] · скачан: 202 раз
Статус: T временная
Размер: 303 MB
Как cкачать? Как скачать Красный песок через торрент | qTorrent

28-11-2019 20:33  

Отключить всю рекламу на сайте

    Дорогой пользователь! Огромная просьба, поблагодарите релизера, оцените раздачу и оставьте свои комментарий, если Вы скачали Красный песок через торрент бесплатно! Внесите свою лепту в развитие PiratBit!
    Комментировать посты могут только пользователи прошедшие не сложную регистрацию
    Показать сообщения:    

    Красный песок через торрент
    Скачать бесплатно Красный песок
    Красный песок скачать торрент
    Красный песок смотреть онлайн
    Cкачать фильм Красный песок бесплатно
    Красный песок скачать торрент в хорошем качестве
    Красный песок смотреть онлайн бесплатно в хорошем качестве


    Вы не можете начинать темы
    Вы не можете отвечать на сообщения
    Вы не можете редактировать свои сообщения
    Вы не можете удалять свои сообщения
    Вы не можете голосовать в опросах
    Вы не можете прикреплять файлы к сообщениям
    Вы можете скачивать файлы