новый адрес
Мега распродажа FORZA HORIZON 4 ULTIMATE+ВСЕ DLC+ОНЛАЙН всего за 499р. 349 руб. (супер цена). Внимание количество ограничено!!!

iTunes

1+1

iTunes

мы

iTunes

1

iTunes

Чернобыль

iTunes

Ральф против интернета

Лицензия

ПШазам

Лицензия

Игра престолов

Лицензия

30
pack

ВАЖНО

!!Акция!!

Alien_RageХит недели

RePack

Resident Evil 21

ИГРА 18+

pack

RePack

Metro:Exodus

!!Акция!!

Alien_Rage

RePack

fifa19

RePack

Assassins Creed: Odyssey

RePack

NEED FOR SPEED™ PAYBACK

3 сезон

9 сезон

Бесстыжие 9 сезон

Все сериалы

все сериалы на PB.wtf

RePack

FAR CRY 5
Ребята, катастрофически не хватает 1900р. для оплаты серверов за Октябрь (всвязи с блокировками трафик упал в 3 раза), 1-2р., выручайте.
  

Живой труп (Владимир Венгеров) [1968, СССР, драма, DVDRip от AVP Studio] pb.wtf

Живой труп через торрент pb.wtf

Размер: 1.09 GB | Добавлен: 3 года 8 мес. назад | Торрент скачан:15 раз
Скачать  

03-03-2016 09:18 Живой труп Скачать торрент  

Живой труп
Страна: СССР
Производство: Ленфильм

Жанр: драма
Год выпуска: 1968
Продолжительность: 02:14:04

Перевод: Не требуется
Cубтитры: нет
Оригинальная аудиодорожка: русский

Режиссер: Владимир Венгеров

В ролях:
Алексей Баталов, Алла Демидова, Олег Басилашвили, Лидия Штыкан, Елена Чёрная, Софья Пилявская, Евгений Кузнецов, Светлана Тома, Всеволод Кузнецов, Пантелеймон Крымов, Алексей Кожевников, Олег Борисов, Николай Боярский, Иннокентий Смоктуновский...
Полный список актёров

Описание:
Драма по одноименной пьесе Л.Н.Толстого.
Федор Протасов с вершин общества опускается на самое его дно, и делает этот выбор осознанно, не желая жить ложью...

Источник: DVD5 R5
Качество видео: DVDRip
Формат видео: AVI

Видео: 672x288 (2,35:1), 25 fps, XviD ~ 962 kbps avg, 0.199 bit/pixel
Аудио: 48 kHz, Dolby Digital AC3 2.0, 192 kbps

Раздача от:
Общее
Полное имя : Zhivoy.trup.1953.DVDRip_[New-team]_by_AVP_Studio.avi
Формат : AVI
Формат/Информация : Audio Video Interleave
Размер файла : 1,09 Гбайт
Продолжительность : 2 ч. 14 м.
Общий поток : 1164 Кбит/сек
Программа кодирования : VirtualDubMod 1.5.10.3 | www.virtualdub-fr.org || (build 2550/release)
Библиотека кодирования : VirtualDubMod build 2550/release

Видео
Идентификатор : 0
Формат : MPEG-4 Visual
Профиль формата : Advanced Simple@L5
Параметр BVOP формата : 1
Параметр QPel формата : Нет
Параметр GMC формата : Без точки перехода
Параметр матрицы формата : Выборочная
Идентификатор кодека : XVID
Идентификатор кодека/Подсказка : XviD
Продолжительность : 2 ч. 14 м.
Битрейт : 962 Кбит/сек
Ширина : 672 пикселя
Высота : 288 пикселей
Соотношение сторон : 2,35:1
Частота кадров : 25,000 кадров/сек
Цветовое пространство : YUV
Субдискретизация насыщенности : 4:2:0
Битовая глубина : 8 бит
Тип развёртки : Прогрессивная
Метод сжатия : С потерями
Бит/(Пиксели*Кадры) : 0.199
Размер потока : 922 Мбайт (83%)
Библиотека кодирования : XviD 1.2.1 (UTC 2008-12-04)

Аудио
Идентификатор : 1
Формат : AC-3
Формат/Информация : Audio Coding 3
Расширение режима : CM (complete main)
Параметр Endianness формата : Big
Идентификатор кодека : 2000
Продолжительность : 2 ч. 14 м.
Вид битрейта : Постоянный
Битрейт : 192 Кбит/сек
Каналы : 2 канала
Расположение каналов : Front: L R
Частота : 48,0 КГц
Частота кадров : 31,250 кадров/сек (1536 spf)
Метод сжатия : С потерями
Размер потока : 184 Мбайт (17%)
Выравнивание : Разделение по промежуткам
Продолжительность промежутка : 40 мс. (1,00 видеокадр)
Время предзагрузки промежутка : 500 мс
pb.wtf



Скачать Живой труп через торрент http://s009.radikal.ru/i307/1603/21/2b8951f4630b.png Скачать фильм Живой труп через торрент бесплантно в хорошем качестве Описание:Драма по одноименной пьесе Л.Н.Толстого.Федор Протасов с вершин общества опускается на самое его дно, и делает этот выбор ... 10 10 1
Info! Золотая раздача, скачанное не засчитывается.
Торрент: Зарегистрирован [2016-03-03 09:18] · скачан: 15 раз
Статус: √ проверено
Размер: 1.09 GB
Как cкачать? Как скачать Живой труп через торрент | qTorrent

% Раздел Тема Автор DL S | L
Кино СССР [ 1.09 GB ] Живой труп [1968 СССР DVDRip-AVC от AVP Studio] AVP Studio Скачать
1 | 0
T Иностранные мультфильмы [ 2.15 GB ] Удивительные живого трупа / The Amazing Adventures Of The Living Corpse [2012 мультфильм BDRip Любительский одноголосый] coc900 Скачать
1 | 0


>> Регистрируемся здесь <<






Отзывы и комментарии о схеме читаем и пишем здесь: ---> Отзывы и комментарии о схеме

Новые благодарочки в телеграм довольных пользователей:
скриншот   скриншот   скриншот   скриншот   скриншот
    Дорогой пользователь! Огромная просьба, поблагодарите релизера, оцените раздачу и оставьте свои комментарий, если Вы скачали Живой труп через торрент бесплатно! Внесите свою лепту в развитие PiratBit!
    Комментировать посты могут только пользователи прошедшие не сложную регистрацию
    Показать сообщения:    

    Живой труп через торрент
    Скачать бесплатно Живой труп
    Живой труп скачать торрент
    Живой труп смотреть онлайн
    Cкачать фильм Живой труп бесплатно
    Живой труп скачать торрент в хорошем качестве
    Живой труп смотреть онлайн бесплатно в хорошем качестве


    Вы не можете начинать темы
    Вы не можете отвечать на сообщения
    Вы не можете редактировать свои сообщения
    Вы не можете удалять свои сообщения
    Вы не можете голосовать в опросах
    Вы не можете прикреплять файлы к сообщениям
    Вы можете скачивать файлы