Ссылка на приватное зеркало нашего сайта всего за 1$. Внимание количество ограничено!!!

2 сезон

iTunes

1 сезон

1

iTunes

iTunes

iTunes

1 сезон

RePack

30

ИГРА 18+

pack

ВАЖНО

!!Акция!!

Alien_RageХит недели

RePack

MK11
pack

Забери бонус

RePack

jed

!!Акция!!

Alien_Rage

RePack

fifa19

RePack

Assassins Creed: Odyssey

RePack

NEED FOR SPEED™ PAYBACK

4 сезон

9 сезон

Бесстыжие 9 сезон

Все сериалы

все сериалы на PB.wtf

RePack

FAR CRY 5
  

Снежная битва / La guerre des tuques 3D (Жан-Франсуа Пуле, Франсуа Бриссон) [2015, мультфильм, BDRip-AVC от potroks] Dub [iTunes] pb.wtf

Снежная битва через торрент pb.wtf

Размер: 1.42 GB | Добавлен: 4 года 7 мес. назад | Торрент скачан:341 раз
Скачать  

04-03-2016 16:59 Снежная битва Скачать торрент  

Снежная битва / La guerre des tuques 3D
Год выпуска: 2015
Страна: Канада / CarpeDiem Film & TV
Жанр: мультфильм
Продолжительность: 01:22:20
Перевод: Дубляж [iTunes]
Субтитры: нет
Навигация по главам: есть
Режиссер: Жан-Франсуа Пуле / Jean-François Pouliot, Франсуа Бриссон / François Brisson
В ролях:

Анджела Галуппо (Luke, озвучка), Марилуп Вульф (Sophie), Люсинда Дэвис (Sophie, озвучка), Николас Савард-Хербер (Luc), Софи Кадьо (Lucie), Энн Касабонн (Maranda), Хелен Буржуа Леклерк (François Les Lunettes), Росс Линч (Piers), Катрин Трюдо (Jacques), Жильдор Руа (Chabot), Андре Сов (Henri et Georges Leroux), Себастьян Рединг (Pierre)
Описание: Чтобы развлечься во время зимних каникул, детвора из маленькой деревни решает устроить грандиозное снежное побоище между двумя командами.

Качество: BDRip-AVC
Формат: MKV
Видео кодек: AVC
Аудио кодек: AC3
Видео: 1044x436 (2.40:1), 2091 kbps, 23,976 fps, 0,192 bit/pixel
Аудио: AC3 / 5.1 / 48 kHz / 384 kbps / 16 bit

Релиз группы:
Автор рипа: potroks

Код:

General
Unique ID                                : 189461460681584573821573415154498330185 (0x8E88F3360B587EF8AC9290F01086DE49)
Complete name                            : D:\Мульты\Snezhnaya.Bitva.2015.RUS.BDRip.x264.-HELLYWOOD.mkv
Format                                   : Matroska
Format version                           : Version 4 / Version 2
File size                                : 1.42 GiB
Duration                                 : 1h 22mn
Overall bit rate                         : 2 475 Kbps
Movie name                               : La guerre des tuques (2015) - HELLYWOOD
Encoded date                             : UTC 2016-03-04 16:41:22
Writing application                      : mkvmerge v5.9.0 ('On The Loose') built on Dec 15 2012 16:39:58
Writing library                          : libebml v1.3.0 + libmatroska v1.4.0

Video
ID                                       : 1
Format                                   : AVC
Format/Info                              : Advanced Video Codec
Format profile                           : High@L4.1
Format settings, CABAC                   : Yes
Format settings, ReFrames                : 10 frames
Codec ID                                 : V_MPEG4/ISO/AVC
Duration                                 : 1h 22mn
Bit rate                                 : 2 091 Kbps
Width                                    : 1 044 pixels
Height                                   : 436 pixels
Display aspect ratio                     : 2.40:1
Frame rate                               : 23.976 fps
Color space                              : YUV
Chroma subsampling                       : 4:2:0
Bit depth                                : 8 bits
Scan type                                : Progressive
Bits/(Pixel*Frame)                       : 0.192
Stream size                              : 1.17 GiB (82%)
Title                                    : potroks
Writing library                          : x264 core 146 r2538 121396c
Encoding settings                        : cabac=1 / ref=10 / deblock=1:-1:-1 / analyse=0x3:0x113 / me=umh / subme=11 / psy=1 / psy_rd=1.05:0.15 / mixed_ref=1 / me_range=48 / chroma_me=1 / trellis=2 / 8x8dct=1 / cqm=0 / deadzone=21,11 / fast_pskip=0 / chroma_qp_offset=-3 / threads=9 / lookahead_threads=2 / sliced_threads=0 / nr=0 / decimate=0 / interlaced=0 / bluray_compat=0 / constrained_intra=0 / bframes=11 / b_pyramid=2 / b_adapt=2 / b_bias=0 / direct=3 / weightb=1 / open_gop=0 / weightp=2 / keyint=240 / keyint_min=23 / scenecut=40 / intra_refresh=0 / rc_lookahead=60 / rc=2pass / mbtree=0 / bitrate=2091 / ratetol=1.0 / qcomp=0.70 / qpmin=0 / qpmax=69 / qpstep=4 / cplxblur=20.0 / qblur=0.5 / vbv_maxrate=14000 / vbv_bufsize=14000 / nal_hrd=none / filler=0 / ip_ratio=1.40 / pb_ratio=1.30 / aq=1:0.80
Language                                 : English
Default                                  : Yes
Forced                                   : No

Audio
ID                                       : 2
Format                                   : AC-3
Format/Info                              : Audio Coding 3
Mode extension                           : CM (complete main)
Codec ID                                 : A_AC3
Duration                                 : 1h 22mn
Bit rate mode                            : Constant
Bit rate                                 : 384 Kbps
Channel(s)                               : 6 channels
Channel positions                        : Front: L C R, Side: L R, LFE
Sampling rate                            : 48.0 KHz
Bit depth                                : 16 bits
Compression mode                         : Lossy
Stream size                              : 226 MiB (16%)
Title                                    : Dub | DD 5.1 @ 384 kbps - iTunes
Language                                 : Russian
Default                                  : Yes
Forced                                   : No

Menu
00:00:00.000                             : en:Chapter 01
00:04:38.820                             : en:Chapter 02
00:09:17.306                             : en:Chapter 03
00:17:38.015                             : en:Chapter 04
00:22:18.503                             : en:Chapter 05
00:28:09.562                             : en:Chapter 06
00:31:41.274                             : en:Chapter 07
00:36:09.959                             : en:Chapter 08
00:44:14.151                             : en:Chapter 09
00:47:54.037                             : en:Chapter 10
00:53:04.014                             : en:Chapter 11
00:58:45.480                             : en:Chapter 12
01:03:37.146                             : en:Chapter 13
01:07:00.349                             : en:Chapter 14
01:14:14.908                             : en:Chapter 15
01:19:07.451                             : en:Chapter 16

pb.wtf



Скачать Снежная битва через торрент http://i76.fastpic.ru/big/2016/0304/3f/94e2249252f0463737a4bc2232846f3f.png Скачать фильм Снежная битва через торрент бесплантно в хорошем качестве Описание: Чтобы развлечься во время зимних каникул, детвора из маленькой деревни решает устроить грандиозное снежное побоище между двумя ... 9.4 10 14
Info! Золотая раздача, скачанное не засчитывается.
Торрент: Зарегистрирован [2016-03-04 16:59] · скачан: 341 раз
Статус: √ проверено
Размер: 1.42 GB
Как cкачать? Как скачать Снежная битва через торрент | qTorrent

% Раздел Тема Автор DL S | L
Иностранные мультфильмы [ 707 MB ] Снежная битва / La guerre des tuques 3D [2015 мультфильм HDRip ""] coc900 Скачать
1 | 0
Иностранные мультфильмы [ 1.42 GB ] Снежная битва / La guerre des tuques 3D [2015 мультфильм BDRip] ] Twi7ter Скачать
1 | 0

28-11-2019 20:33  

Отключить всю рекламу на сайте

    Дорогой пользователь! Огромная просьба, поблагодарите релизера, оцените раздачу и оставьте свои комментарий, если Вы скачали Снежная битва через торрент бесплатно! Внесите свою лепту в развитие PiratBit!
    Комментировать посты могут только пользователи прошедшие не сложную регистрацию
    Показать сообщения:    

    Снежная битва через торрент
    Скачать бесплатно Снежная битва
    Снежная битва скачать торрент
    Снежная битва смотреть онлайн
    Cкачать фильм Снежная битва бесплатно
    Снежная битва скачать торрент в хорошем качестве
    Снежная битва смотреть онлайн бесплатно в хорошем качестве


    Вы не можете начинать темы
    Вы не можете отвечать на сообщения
    Вы не можете редактировать свои сообщения
    Вы не можете удалять свои сообщения
    Вы не можете голосовать в опросах
    Вы не можете прикреплять файлы к сообщениям
    Вы можете скачивать файлы