Доктор Стрэндж

Лицензия

Добыча

Дубляж

Уэнсдэй

1 сезон

Тор

Дубляж

В эфире

Дубляж

Там, где раки поют

MVO

Властелин колец

1 сезон

Deluxe

pack

Рекомендуем

30

Пиратка

ВАЖНО

ВАЖНО

Ghostwire

Пиратка

jed

RePack

nioh2

RePack

RDR2

RePack

NEED FOR SPEED™ PAYBACK

RePack

скачать торрент

Кинопоиск HD

Острые козырьки 6 сезон

6 сезон

FAR CRY 6

RePack

скачать торрент

Лицензия

скачать торрент

MVO

1

1 сезон

скачать торрент

1 сезон

скачать торрент

Лицензия

  

Лунная афера / Moonwalkers (Антуан Бардо-Жаке) [2015, комедия, BDRemux] iTunes

Лунная афера через торрент pb.wtf

Размер: 22.63 GB | Добавлен: 6 лет 9 мес. назад | Торрент скачан:92 раза
Смотреть онлайн | Скачать   

06-03-2016 07:46 Лунная афера Скачать торрент  

Название на Русском: Лунная афера
Название на оригинале: Moonwalkers
Год:2015
Производство: Франция / Nexus Factory, Partizan Films, Potemkino,
Жанр: комедия
Продолжительность: 01:36:22
Перевод: Дублированный (iTunes)
Вид субтитров: Вшитые, отключаемые
Язык субтитров: Английский

Режиссер: Антуан Бардо-Жаке / Antoine Bardou-Jacquet

Продюсер: Жорж Берманн, Дэвид Клейкенс, Алекс Вербаер

Актеры: Руперт Гринт, Рон Перлман, Роберт Шиэн, Стивен Кэмпбелл Мур, Том Ауденарт, Кевин Бишоп, Эрик Лёмпарт, Эрика Сэйнт, Джей Бенедикт, Джон Фландерс.

Описание:

Тайный агент ЦРУ отправляется в Лондон, чтобы разыскать там Стэнли Кубрика и заказать ему фильм про высадку астронавтов на лунную поверхность на случай провала реальной миссии. Но вместо Кубрика агент нарывается на афериста Джонни, который устраивает съемки сверхсекретного видео на стремной студии порнофильмов, где невесомость достигается благодаря крепкому косяку…



Возраст: 18+ (зрителям, достигшим 18 лет. запрещено для детей)
Рейтинг MPAA: R (лицам до 17 лет обязательно присутствие взрослого)
Дата мировой премьеры: 14 марта 2015
Дата российской премьеры: 25 февраля 2016, «Парадиз»

Релиз от: bluebird

Качество: BDRemux
Формат:MKV
Видео: AVC/H.264, 1920x1080p, (2,40:1), ~30.8 Mbps, 23,976 fps
Аудио 1: AC3, 6 ch, 48.0 KHz, 384 kbps - Русский
Аудио 2: TrueHD, 6 ch, 48.0 KHz, 2869 kbps - Английский
Аудио 3: AC3, 6 ch, 48.0 KHz, 448 kbps - Английский
Общее

Уникальный идентификатор : 177568970979844264453373294076263090494 (0x85968A32FB2E5F9CBF4B2F21595F493E)

Полное имя : :\MNWLKRS_2015_BDREMUX -BLUEBIRD.mkv

Формат : Matroska

Версия формата : Version 4 / Version 2

Размер файла : 22,6 Гбайт

Продолжительность : 1 ч. 36 м.

Режим общего битрейта : Переменный

Общий поток : 33,6 Мбит/сек

Название фильма : MNWLKRS_2015_BDREMUX -BLUEBIRD

Дата кодирования : UTC 2016-03-04 22:07:55

Программа кодирования : mkvmerge v7.1.0 ('Good Love') 64bit built on Jul 27 2014 13:06:55

Библиотека кодирования : libebml v1.3.0 + libmatroska v1.4.1

DURATION : 01:32:36.926000000

NUMBER_OF_FRAMES : 1507

NUMBER_OF_BYTES : 43223

_STATISTICS_WRITING_APP : mkvmerge v7.1.0 ('Good Love') 64bit built on Jul 27 2014 13:06:55

_STATISTICS_WRITING_DATE_UTC : 2016-03-04 22:07:55

_STATISTICS_TAGS : BPS DURATION NUMBER_OF_FRAMES NUMBER_OF_BYTES

Видео

Идентификатор : 1

Формат : AVC

Формат/Информация : Advanced Video Codec

Профиль формата : [email protected]

Параметр CABAC формата : Да

Параметр ReFrames формата : 4 кадра

Идентификатор кодека : V_MPEG4/ISO/AVC

Продолжительность : 1 ч. 36 м.

Вид битрейта : Переменный

Максимальный битрейт : 35,0 Мбит/сек

Ширина : 1920 пикселей

Высота : 1080 пикселей

Соотношение сторон : 16:9

Режим частоты кадров : Постоянный

Частота кадров : 23,976 кадра/сек

Цветовое пространство : YUV

Субдискретизация насыщенности : 4:2:0

Битовая глубина : 8 бит

Тип развёртки : Прогрессивная

Заголовок : MNWLKRS_2015_BDREMUX -BLUEBIRD

Язык : English

Default : Да

Forced : Нет

DURATION : 01:36:22.402000000

NUMBER_OF_FRAMES : 138639

NUMBER_OF_BYTES : 21567786746

_STATISTICS_WRITING_APP : mkvmerge v7.1.0 ('Good Love') 64bit built on Jul 27 2014 13:06:55

_STATISTICS_WRITING_DATE_UTC : 2016-03-04 22:07:55

_STATISTICS_TAGS : BPS DURATION NUMBER_OF_FRAMES NUMBER_OF_BYTES

Аудио #1

Идентификатор : 2

Формат : AC-3

Формат/Информация : Audio Coding 3

Расширение режима : CM (complete main)

Параметр Endianness формата : Big

Идентификатор кодека : A_AC3

Продолжительность : 1 ч. 36 м.

Вид битрейта : Постоянный

Битрейт : 384 Кбит/сек

Каналы : 6 каналов

Расположение каналов : Front: L C R, Side: L R, LFE

Частота : 48,0 КГц

Метод сжатия : С потерями

Размер потока : 265 Мбайт (1%)

Заголовок : iTunes

Язык : Russian

Default : Да

Forced : Нет

DURATION : 01:36:22.407000000

NUMBER_OF_FRAMES : 6938889

NUMBER_OF_BYTES : 2078867548

_STATISTICS_WRITING_APP : mkvmerge v7.1.0 ('Good Love') 64bit built on Jul 27 2014 13:06:55

_STATISTICS_WRITING_DATE_UTC : 2016-03-04 22:07:55

_STATISTICS_TAGS : BPS DURATION NUMBER_OF_FRAMES NUMBER_OF_BYTES

Аудио #2

Идентификатор : 3

Формат : TrueHD

Идентификатор кодека : A_TRUEHD

Продолжительность : 1 ч. 36 м.

Вид битрейта : Переменный

Максимальный битрейт : 4665 Кбит/сек

Каналы : 6 каналов

Расположение каналов : Front: L C R, Side: L R, LFE

Частота : 48,0 КГц

Метод сжатия : Без потерь

Заголовок : TrueHD 5.1

Язык : English

Default : Нет

Forced : Нет

DURATION : 01:36:22.432000000

NUMBER_OF_FRAMES : 180701

NUMBER_OF_BYTES : 323816192

_STATISTICS_WRITING_APP : mkvmerge v7.1.0 ('Good Love') 64bit built on Jul 27 2014 13:06:55

_STATISTICS_WRITING_DATE_UTC : 2016-03-04 22:07:55

_STATISTICS_TAGS : BPS DURATION NUMBER_OF_FRAMES NUMBER_OF_BYTES

Аудио #3

Идентификатор : 4

Формат : AC-3

Формат/Информация : Audio Coding 3

Расширение режима : CM (complete main)

Параметр Endianness формата : Big

Идентификатор кодека : A_AC3

Продолжительность : 1 ч. 36 м.

Вид битрейта : Постоянный

Битрейт : 448 Кбит/сек

Каналы : 6 каналов

Расположение каналов : Front: L C R, Side: L R, LFE

Частота : 48,0 КГц

Метод сжатия : С потерями

Размер потока : 309 Мбайт (1%)

Заголовок : AC3 5.1

Язык : English

Default : Нет

Forced : Нет

Текст

Идентификатор : 5

Формат : UTF-8

Идентификатор кодека : S_TEXT/UTF8

Идентификатор кодека/Информация : UTF-8 Plain Text

Заголовок : SDH

Язык : English

Default : Да

Forced : Нет

Меню

00:00:00.000 : en:Chapter 00

00:07:00.670 : en:Chapter 01

00:16:51.927 : en:Chapter 02

00:25:18.517 : en:Chapter 03

00:33:09.988 : en:Chapter 04

00:41:52.551 : en:Chapter 05

00:49:57.077 : en:Chapter 06

00:59:36.197 : en:Chapter 07

01:08:03.287 : en:Chapter 08

01:15:28.857 : en:Chapter 09

01:23:17.617 : en:Chapter 10

01:32:40.721 : en:Chapter 11



Скачать Лунная афера через торрент http://s020.radikal.ru/i716/1603/8d/dccff83f1bd7.jpg Скачать, смотреть онлайн Лунная афера бесплантно в хорошем качестве Описание: Тайный агент ЦРУ отправляется в Лондон, чтобы разыскать там Стэнли Кубрика и заказать ему фильм про высадку астронавтов на лунную ... 10 10 3
Info! Золотая раздача, скачанное не засчитывается.
Торрент: Зарегистрирован [2016-03-06 07:46] · скачан: 92 раз
Статус: √ проверено
Размер: 22.63 GB
Как cкачать? Как скачать Лунная афера через торрент | UTorrent

% Раздел Тема Автор DL S | L
Фильмы 2015 [DVDrip, WEB-DLRip, HDrip] [ 2.14 GB ] Лунная афера / Moonwalkers | iTunes | BDRip-AVC от potroks potroks Скачать
1 | 0
Фильмы 2015 [DVDrip, WEB-DLRip, HDrip] [ 707 MB ] Лунная афера / Moonwalkers | iTunes | HDRip by _Один_777 Один 777 Скачать
1 | 0
Фильмы 2015 [DVDrip, WEB-DLRip, HDrip] [ 1.42 GB ] Лунная афера / Moonwalkers | iTunes | BDRip-AVC от potroks potroks Скачать
1 | 0
R.G. Resident & PiratVoice - Фильмы, Видео [ 1.46 GB ] Лунная афера / Moonwalkers | iTunes R.G.Resident | BDRip-AVC, Дубляж Хорват Скачать
1 | 0

28-11-2019 20:33  


Отключить вcю реклaмy на сайте, в т.ч. и в плеере онлайн просмотра!

    Дорогой пользователь! Огромная просьба, поблагодарите релизера, оцените раздачу и оставьте свои комментарий, если Вы скачали Лунная афера через торрент бесплатно!!
    Комментировать посты могут только пользователи прошедшие не сложную регистрацию
    Показать сообщения:    


    Лунная афера через торрент
    Скачать бесплатно Лунная афера
    Лунная афера скачать торрент
    Лунная афера смотреть онлайн
    Cкачать фильм Лунная афера бесплатно
    Лунная афера скачать торрент в хорошем качестве
    Лунная афера смотреть онлайн бесплатно в хорошем качестве
    Вы не можете начинать темы
    Вы не можете отвечать на сообщения
    Вы не можете редактировать свои сообщения
    Вы не можете удалять свои сообщения
    Вы не можете голосовать в опросах
    Вы не можете прикреплять файлы к сообщениям
    Вы можете скачивать файлы
    Лунная афера / Moonwalkers [2015, комедия, BDRemux] iTunes смотреть онлайн, скачать торрент picoco.icu