Всегда рабочее зеркало без VPN и Proxy просто перед .vidak.icu напиши любое слово или цифру, Пример http://3uh.vidak.icu

>

7.4

iTunes

7.4

2 сезон

6.6

iTunes

1

7.4

2 сезон

7.2

iTunes

6.0

MVO

13

6.1

iTunes

8.3

Пиратка

30

ULTIMATE

pack

9.9

Лицензия

ВАЖНО

ИГРА 18+

pack

7.3

RePack

MK11

7.7

RePack

jed

7.8

RePack

fifa19

8.5

RePack

RDR2

RePack

NEED FOR SPEED™ PAYBACK

1 сезон

9 сезон

Бесстыжие 9 сезон

Все сериалы

все сериалы на PB.wtf

RePack

FAR CRY 5

Anonymous, добрый день, мы катастрофически не успеваем собрать деньги на оплату серверов, помогите нам пожалуйста 5,10,15р., для нас важна любая помощь . В качестве благодарности мы отключим Вам всю рекламу на сайте (укажите свой ник в строку Ваше имя)!

×
  
Magnet ссылка

Франкенштейн / Frankenstein (Бернард Роуз / Bernard Rose) [2015, ужасы, триллер, BDRip-AVC от potroks] AVO pb.wtf

Франкенштейн через торрент pb.wtf

Размер: 2.18 GB | Добавлен: 5 лет 10 мес. назад | Торрент скачан:23 раза
Смотреть онлайн Франкенштейн | Скачать    Ребята, помогите собрать деньги на оплату серверов!!!

07-03-2016 04:32 Франкенштейн Скачать торрент  

Франкенштейн / Frankenstein
Год выпуска: 2015
Страна: США, Германия / Bad Badger, Eclectic Pictures Inc....
Жанр: ужасы, триллер
Продолжительность: 01:29:25
Перевод: Авторский (одноголосый) [А.Киреев]
Субтитры: английские (Full), английские (SDH)
Навигация по главам: есть
Режиссер: Бернард Роуз / Bernard Rose
В ролях:

Кэрри-Энн Мосс (Marie), Тони Тодд (Eddie), Завьер Сэмюэл (Adam), Дэнни Хьюстон (Viktor Frankenstein), Сандра Роско (Pedestrian), МакКенна Грейс, Майя Эрскин (Wanda), Кэрол Энн Уоттс (Lopez), Мэри Галлахер (Johnson), Джеймс Лью (Hotel Manager), Адам Нагаитис (Winthrop), Джон Лэси (Rubin)
Описание: Действие фильма разворачивается в современном Лос-Анджелесе, а повествование в ней ведется от лица монстра Адама, созданного и брошенного супругами Виктором и Элизабет Франкенштейнами, занимающимися научными экспериментами.

Качество: BDRip-AVC
Формат: MKV
Видео кодек: AVC
Аудио кодек: AC3
Видео: 1024x576 (16:9), 2594 kbps, 23,976 fps, 0.183 bit/pixel
Аудио №1: AC3 / 5.1 / 48 kHz / 448 kbps / 16 bit | RUS
Аудио №2: AC3 / 5.1 / 48 kHz / 448 kbps / 16 bit | ENG

Релиз группы:
Автор рипа: potroks

Код:

Общее
Уникальный идентификатор : 179074631949623189949525798177916389424 (0x86B8850430BD4A6FBB61A343AB150830)
Полное имя : Frankenshteyn.2015.DUAL.BDRip.x264.-HELLYWOOD.mkv
Формат : Matroska
Версия формата : Version 4 / Version 2
Размер файла : 2,18 Гбайт
Продолжительность : 1 ч. 29 м.
Общий поток : 3489 Кбит/сек
Название фильма : Frankenstein (2015) - HELLYWOOD
Дата кодирования : UTC 2016-03-06 15:18:59
Программа кодирования : mkvmerge v5.9.0 ('On The Loose') built on Dec 15 2012 16:39:58
Библиотека кодирования : libebml v1.3.0 + libmatroska v1.4.0

Видео
Идентификатор : 1
Формат : AVC
Формат/Информация : Advanced Video Codec
Профиль формата : High@L4.1
Параметр CABAC формата : Да
Параметр ReFrames формата : 12 кадров
Идентификатор кодека : V_MPEG4/ISO/AVC
Продолжительность : 1 ч. 29 м.
Битрейт : 2594 Кбит/сек
Ширина : 1024 пикселя
Высота : 576 пикселей
Соотношение сторон : 16:9
Режим частоты кадров : Постоянный
Частота кадров : 23,976 кадра/сек
Цветовое пространство : YUV
Субдискретизация насыщенности : 4:2:0
Битовая глубина : 8 бит
Тип развёртки : Прогрессивная
Бит/(Пиксели*Кадры) : 0.183
Размер потока : 1,58 Гбайт (72%)
Заголовок : potroks
Библиотека кодирования : x264 core 148 r2665M a01e339
Настройки программы : cabac=1 / ref=12 / deblock=1:-3:-3 / analyse=0x3:0x133 / me=umh / subme=11 / psy=1 / psy_rd=0.98:0.00 / mixed_ref=1 / me_range=48 / chroma_me=1 / trellis=2 / 8x8dct=1 / cqm=0 / deadzone=21,11 / fast_pskip=0 / chroma_qp_offset=-2 / threads=9 / lookahead_threads=2 / sliced_threads=0 / nr=0 / decimate=1 / interlaced=0 / bluray_compat=0 / constrained_intra=0 / bframes=13 / b_pyramid=2 / b_adapt=2 / b_bias=0 / direct=3 / weightb=1 / open_gop=0 / weightp=2 / keyint=240 / keyint_min=23 / scenecut=40 / intra_refresh=0 / rc=2pass / mbtree=0 / bitrate=2594 / ratetol=1.0 / qcomp=0.70 / qpmin=0 / qpmax=69 / qpstep=4 / cplxblur=20.0 / qblur=0.5 / ip_ratio=1.35 / pb_ratio=1.25 / aq=1:0.80
Язык : English
Default : Да
Forced : Нет

Аудио #1
Идентификатор : 2
Формат : AC-3
Формат/Информация : Audio Coding 3
Расширение режима : CM (complete main)
Параметр Endianness формата : Big
Идентификатор кодека : A_AC3
Продолжительность : 1 ч. 29 м.
Вид битрейта : Постоянный
Битрейт : 448 Кбит/сек
Каналы : 6 каналов
Расположение каналов : Front: L C R, Side: L R, LFE
Частота : 48,0 КГц
Метод сжатия : С потерями
Размер потока : 287 Мбайт (13%)
Заголовок : AVO | DD 5.1 @ 448 kbps - A.Kireev
Язык : Russian
Default : Да
Forced : Нет

Аудио #2
Идентификатор : 3
Формат : AC-3
Формат/Информация : Audio Coding 3
Расширение режима : CM (complete main)
Параметр Endianness формата : Big
Идентификатор кодека : A_AC3
Продолжительность : 1 ч. 29 м.
Вид битрейта : Постоянный
Битрейт : 448 Кбит/сек
Каналы : 6 каналов
Расположение каналов : Front: L C R, Side: L R, LFE
Частота : 48,0 КГц
Метод сжатия : С потерями
Размер потока : 287 Мбайт (13%)
Заголовок : Original | DD5.1 @ 448 kbps
Язык : English
Default : Нет
Forced : Нет

Текст #1
Идентификатор : 4
Формат : UTF-8
Идентификатор кодека : S_TEXT/UTF8
Идентификатор кодека/Информация : UTF-8 Plain Text
Заголовок : Full
Язык : English
Default : Нет
Forced : Нет

Текст #2
Идентификатор : 5
Формат : UTF-8
Идентификатор кодека : S_TEXT/UTF8
Идентификатор кодека/Информация : UTF-8 Plain Text
Заголовок : SDH
Язык : English
Default : Нет
Forced : Нет

Меню
00:00:00.000 : :Chapter 1
00:05:03.928 : :Chapter 2
00:10:05.396 : :Chapter 3
00:20:13.545 : :Chapter 4
00:30:10.058 : :Chapter 5
00:40:36.475 : :Chapter 6
00:50:22.185 : :Chapter 7
01:00:07.312 : :Chapter 8
01:05:06.444 : :Chapter 9
01:10:09.078 : :Chapter 10
01:20:09.763 : :Chapter 11
01:24:40.075 : :Chapter 12

pb.wtf



Скачать Франкенштейн через торрент http://i73.fastpic.ru/big/2016/0306/84/a1f083d08caa1eb09972e7474d8e6284.png Скачать, смотреть онлайн Франкенштейн бесплантно в хорошем качестве Описание: Действие фильма разворачивается в современном Лос-Анджелесе, а повествование в ней ведется от лица монстра Адама, созданного и ... 5.5 10 4
Info! Золотая раздача, скачанное не засчитывается.
Торрент: Зарегистрирован [2016-03-07 04:32] · скачан: 23 раз
Статус: √ проверено
Размер: 2.18 GB
Как cкачать? Как скачать Франкенштейн через торрент | UTorrent

% Раздел Тема Автор DL S | L
Фильмы с авторской озвучкой [ 5.76 GB ] Франкенштейн / Frankenstein [2015 BDRip 720p] AVO potroks Скачать
1 | 0
Фильмы до 2000 г. [ 2.37 GB ] Франкенштейн / Frankenstein [1994 Мело HDRip] 2х[AVO] killermax2013 Скачать
1 | 0

28-11-2019 20:33  

Отключить всю рекламу на сайте

08-03-2016 08:03 Франкенштейн Скачать торрент  

стоящий такой фильм-не ожидалpb.wtf



    Дорогой пользователь! Огромная просьба, поблагодарите релизера, оцените раздачу и оставьте свои комментарий, если Вы скачали Франкенштейн через торрент бесплатно!
    Комментировать посты могут только пользователи прошедшие не сложную регистрацию
    Показать сообщения:    

    Франкенштейн через торрент
    Скачать бесплатно Франкенштейн
    Франкенштейн скачать торрент
    Франкенштейн смотреть онлайн
    Cкачать фильм Франкенштейн бесплатно
    Франкенштейн скачать торрент в хорошем качестве
    Франкенштейн смотреть онлайн бесплатно в хорошем качестве


    Вы не можете начинать темы
    Вы не можете отвечать на сообщения
    Вы не можете редактировать свои сообщения
    Вы не можете удалять свои сообщения
    Вы не можете голосовать в опросах
    Вы не можете прикреплять файлы к сообщениям
    Вы можете скачивать файлы