Ссылка на приватное зеркало нашего сайта всего за 1$. Внимание количество ограничено!!!

2 сезон

iTunes

1 сезон

1

2 сезон

2 сезон

iTunes

1 сезон

RePack

30

Новинка

ВАЖНО

ИГРА 18+

pack

RePack

MK11
pack

Забери бонус

RePack

jed

!!Акция!!

Alien_Rage

RePack

fifa19

RePack

Assassins Creed: Odyssey

RePack

NEED FOR SPEED™ PAYBACK

4 сезон

9 сезон

Бесстыжие 9 сезон

Все сериалы

все сериалы на PB.wtf

RePack

FAR CRY 5
  

Обыкновенный преступник / Ordinary Decent Criminal (Тадеус О’Салливан / Thaddeus O'Sullivan) [2000, Комедия, криминал, BDRemux 1080p] MVO pb.wtf

Обыкновенный преступник через торрент pb.wtf

Размер: 9.44 GB | Добавлен: 4 года 8 мес. назад | Торрент скачан:41 раз
Скачать  

07-03-2016 16:13 Обыкновенный преступник Скачать торрент  

Информация о фильме
Название: Обыкновенный преступник
Оригинальное название: Ordinary Decent Criminal
Год выпуска: 2000
Страна: США, Германия, Великобритания, Ирландия
Продолжительность: 01:34:22
Жанр: Комедия, криминал
Перевод: Профессиональный (многоголосый, закадровый)
Cубтитры: Русские

Режиссер: Тадеус О’Салливан / Thaddeus O'Sullivan

В ролях: Кевин Спейси, Линда Фиорентино, Колин Фаррелл, Питер Муллан, Патрик Малахайд, Стивен Диллейн

Описание: Ограбление — это то, что Майкл Линч всегда делает с блеском. Он берет банки один за другим, не оставляя полиции никаких шансов. Копы сбиваются с ног, гоняясь за ним, но не могут добыть ни единой улики!

Все знают, что он лидер преступной группы, но засадить его за решетку не удается никому! Линч хитер и изобретателен. Он — гений ограблений. Ему преданы свои и его ненавидят чужие. И Линчу определенно нравится такая жизнь, где он — герой!



Качество: BDRemux 1080p
Формат: MKV
Видео: MPEG4 Video (H264), 1920x1080, 23.976fps, 13.4 Mbps
Аудио #1: Русский: Dolby AC3, 48000 Hz, 2ch, 448 kbps - Многоголосый
Аудио #2: Английский: Dolby AC3, 48000 Hz, 2ch, 448 kbps
Формат субтитров: softsub (SRT)

Сэмпл
General

Unique ID : 230199110094402646980779386061991978533 (0xAD2EBC65EC19D681B9C2A3DC8C7C2625)

Complete name : F:DVDRip2000 Обыкновенный преступник2000 Обыкновенный преступник.mkv

Format : Matroska

Format version : Version 4 / Version 2

File size : 9.44 GiB

Duration : 1h 34mn

Overall bit rate mode : Variable

Overall bit rate : 14.3 Mbps

Movie name : 2000 Обыкновенный преступник / renta23

Encoded date : UTC 2016-03-06 19:08:29

Writing application : mkvmerge v8.3.0 ('Over the Horizon') 64bit

Writing library : libebml v1.3.1 + libmatroska v1.4.2

Video

ID : 1

Format : AVC

Format/Info : Advanced Video Codec

Format profile : High@L4.1

Format settings, CABAC : Yes

Format settings, ReFrames : 4 frames

Format settings, GOP : M=3, N=24

Codec ID : V_MPEG4/ISO/AVC

Duration : 1h 34mn

Bit rate mode : Variable

Bit rate : 13.4 Mbps

Maximum bit rate : 35.0 Mbps

Width : 1 920 pixels

Height : 1 080 pixels

Display aspect ratio : 16:9

Frame rate mode : Constant

Frame rate : 23.976 (24000/1001) fps

Standard : NTSC

Color space : YUV

Chroma subsampling : 4:2:0

Bit depth : 8 bits

Scan type : Progressive

Bits/(Pixel*Frame) : 0.270

Stream size : 8.85 GiB (94%)

Title : 2000 Обыкновенный преступник

Language : English

Default : No

Forced : No

Color range : Limited

Color primaries : BT.709

Transfer characteristics : BT.709

Matrix coefficients : BT.709

Audio #1

ID : 2

Format : AC-3

Format/Info : Audio Coding 3

Mode extension : CM (complete main)

Format settings, Endianness : Big

Codec ID : A_AC3

Duration : 1h 34mn

Bit rate mode : Constant

Bit rate : 448 Kbps

Channel(s) : 2 channels

Channel positions : Front: L R

Sampling rate : 48.0 KHz

Frame rate : 31.250 fps (1536 spf)

Compression mode : Lossy

Stream size : 302 MiB (3%)

Title : Многоголосый

Language : Russian

Default : Yes

Forced : No

Audio #2

ID : 3

Format : AC-3

Format/Info : Audio Coding 3

Mode extension : CM (complete main)

Format settings, Endianness : Big

Codec ID : A_AC3

Duration : 1h 34mn

Bit rate mode : Constant

Bit rate : 448 Kbps

Channel(s) : 2 channels

Channel positions : Front: L R

Sampling rate : 48.0 KHz

Frame rate : 31.250 fps (1536 spf)

Compression mode : Lossy

Stream size : 302 MiB (3%)

Language : English

Default : No

Forced : No

Text

ID : 4

Format : UTF-8

Codec ID : S_TEXT/UTF8

Codec ID/Info : UTF-8 Plain Text

Duration : 1h 27mn

Bit rate : 117 bps

Count of elements : 1013

Stream size : 75.5 KiB (0%)

Language : Russian

Default : No

Forced : No

Menu

00:00:00.000 : en:Chapter 01

00:04:54.502 : en:Chapter 02

00:10:21.579 : en:Chapter 03

00:16:06.840 : en:Chapter 04

00:23:13.392 : en:Chapter 05

00:36:02.368 : en:Chapter 06

00:41:31.322 : en:Chapter 07

00:48:41.418 : en:Chapter 08

00:57:39.789 : en:Chapter 09

01:08:00.326 : en:Chapter 10

01:17:48.497 : en:Chapter 11

01:26:58.838 : en:Chapter 12
pb.wtf



Скачать Обыкновенный преступник через торрент http://i73.fastpic.ru/big/2016/0307/e7/b6341ef42ba9e308feb84930cd27b6e7.png Скачать фильм Обыкновенный преступник через торрент бесплантно в хорошем качестве Описание: Ограбление — это то, что Майкл Линч всегда делает с блеском. Он берет банки один за другим, не оставляя полиции никаких шансов. ... 10 10 3
Торрент: Зарегистрирован [2016-03-07 16:13] · скачан: 41 раз
Статус: √ проверено
Размер: 9.44 GB
Как cкачать? Как скачать Обыкновенный преступник через торрент | qTorrent

% Раздел Тема Автор DL S | L
Фильмы до 2000 г. [ 1.45 GB ] Обыкновенный преступник / Ordinary Decent Criminal [2000 HDRip MVO+Original] кэп Скачать
1 | 0

28-11-2019 20:33  

Отключить всю рекламу на сайте

    Дорогой пользователь! Огромная просьба, поблагодарите релизера, оцените раздачу и оставьте свои комментарий, если Вы скачали Обыкновенный преступник через торрент бесплатно! Внесите свою лепту в развитие PiratBit!
    Комментировать посты могут только пользователи прошедшие не сложную регистрацию
    Показать сообщения:    

    Обыкновенный преступник через торрент
    Скачать бесплатно Обыкновенный преступник
    Обыкновенный преступник скачать торрент
    Обыкновенный преступник смотреть онлайн
    Cкачать фильм Обыкновенный преступник бесплатно
    Обыкновенный преступник скачать торрент в хорошем качестве
    Обыкновенный преступник смотреть онлайн бесплатно в хорошем качестве


    Вы не можете начинать темы
    Вы не можете отвечать на сообщения
    Вы не можете редактировать свои сообщения
    Вы не можете удалять свои сообщения
    Вы не можете голосовать в опросах
    Вы не можете прикреплять файлы к сообщениям
    Вы можете скачивать файлы