Ссылка на приватное зеркало нашего сайта всего за 1$. Внимание количество ограничено!!!

2 сезон

iTunes

1 сезон

1

2 сезон

2 сезон

iTunes

1 сезон

RePack

30

Новинка

ВАЖНО

ИГРА 18+

pack

RePack

MK11
pack

Забери бонус

RePack

jed

!!Акция!!

Alien_Rage

RePack

fifa19

RePack

Assassins Creed: Odyssey

RePack

NEED FOR SPEED™ PAYBACK

4 сезон

9 сезон

Бесстыжие 9 сезон

Все сериалы

все сериалы на PB.wtf

RePack

FAR CRY 5
  

Слешер / Слэшер / Резня / Slasher / Сезон: 1 / Серии 1-8 из 8 (Крэйг Дэвид Уоллес / Craig David Wallace) [2016, США, Великобритания, Канада, ужасы, триллер, драма, WEB-DLRip] MVO [Alternative Production] pb.wtf

Слешер через торрент pb.wtf

Размер: 5.94 GB | Добавлен: 4 года 7 мес. назад | Торрент скачан:106 раз
Скачать  

08-03-2016 03:49 Слешер Скачать торрент  

Слешер / Резня / Slasher


  • Год выпуска: 2016
  • Страна: США, Великобритания, Канада
  • Жанр: ужасы, триллер, драма
  • Продолжительность: 00:49:53 (Серия)
  • Перевод: Любительский многоголосый [Alternative Production]

  • Режиссер: Крэйг Дэвид Уоллес / Craig David Wallace
  • В ролях:

    Кэти МакГрат (Sarah Bennett), Брэндон Джей МакЛарен (Dylan Bennett), Стив Байерс (Cam Henry), Джессика Сайпос (June Henry), Arianna Bradbury (Witch), Kayla Dumont (Fairy), Дэвид Патрик Флемминг (Young Tom), Wayne St-George (Doug Franklyn), Шон Ахмед, Ашанти Бромфилд (Ashley), Джефферсон Браун, Майкл Клилэнд (Father)


  • Сара Беннетт, молодая женщина, которая возвращается в небольшой город, где родилась, и обнаруживает себя в центре ужасающей серии убийств, основанных на широко известном убийстве её родителей. Вскоре все, кто окружает Сару, становятся подозреваемыми или жертвами, по мере того, как убийств становится всё больше и раскрываются давно похороненные секреты. Сара начинает допрашивать всех и каждого вокруг себя, включая своего мужа Дилана.
  • Рейтинг:



  • Качество: WEB-DLRip
  • Формат: :AVI
  • Видео кодек: XviD
  • Аудио кодек: AC3
  • Видео: 720x400 (16:9), 1502 kbps, 23,976 fps, 0,218 bpp
  • Аудио: 2.0 / 48 kHz / 192 kbps / 16 bit
  • Релиз от: GEKADOL

    Код:

    Внимание! Раздача ведётся путём добавления новых серий; при каждом добавлении создаётся новый торрент. Чтобы начать докачку новой серии, пользователям необходимо сделать следующее:
    (1) остановить скачивание,
    (2) удалить старый торрент у себя из клиента (старые серии удалять не надо),
    (3) скачать новый торрент и запустить его у себя в клиенте вместо старого, при этом указать клиенту путь в старую папку куда и должно происходить скачивание новых серий.
    Ваш клиент при этом должен произвести хеширование (проверку) старой папки (если не производит сам - помогите ему сделать это), и будет докачивать только те серии которых у вас ещё нет. Старые серии при этом не удаляются, а продолжают раздаваться!
    Eсли вы уже удалили старые серии, то предотвратить повторную закачку старых серий можно, отжав галочку в соответствующих местах при запуске нового торрента. По возможности, желательно не удалять старые серии как можно дольше чтобы релизёр не столько продолжал раздавать старые серии, а смог сконцентрироваться на новых.


    Код:

    General
    Complete name                            : H:\Слэшер (1 сезон)  Alternative Production\Слешер (1 сезон 2 серия).avi
    Format                                   : AVI
    Format/Info                              : Audio Video Interleave
    File size                                : 608 MiB
    Duration                                 : 49mn 53s
    Overall bit rate                         : 1 704 Kbps
    Writing application                      : VirtualDubMod 1.5.10.3 | www.virtualdub-fr.org || (build 2550/release)
    Writing library                          : VirtualDubMod build 2550/release

    Video
    ID                                       : 0
    Format                                   : MPEG-4 Visual
    Format profile                           : Advanced Simple@L5
    Format settings, BVOP                    : 1
    Format settings, QPel                    : No
    Format settings, GMC                     : No warppoints
    Format settings, Matrix                  : Default (H.263)
    Codec ID                                 : XVID
    Codec ID/Hint                            : XviD
    Duration                                 : 49mn 53s
    Bit rate                                 : 1 503 Kbps
    Width                                    : 720 pixels
    Height                                   : 400 pixels
    Display aspect ratio                     : 16:9
    Frame rate                               : 23.976 fps
    Color space                              : YUV
    Chroma subsampling                       : 4:2:0
    Bit depth                                : 8 bits
    Scan type                                : Progressive
    Compression mode                         : Lossy
    Bits/(Pixel*Frame)                       : 0.218
    Stream size                              : 536 MiB (88%)
    Writing library                          : XviD 1.2.1 (UTC 2008-12-04)

    Audio
    ID                                       : 1
    Format                                   : AC-3
    Format/Info                              : Audio Coding 3
    Mode extension                           : CM (complete main)
    Codec ID                                 : 2000
    Duration                                 : 49mn 53s
    Bit rate mode                            : Constant
    Bit rate                                 : 192 Kbps
    Channel(s)                               : 2 channels
    Channel positions                        : Front: L R
    Sampling rate                            : 48.0 KHz
    Bit depth                                : 16 bits
    Compression mode                         : Lossy
    Stream size                              : 68.5 MiB (11%)
    Alignment                                : Split accross interleaves
    Interleave, duration                     : 42 ms (1.00 video frame)
    Interleave, preload duration             : 500 ms




    Скриншоты:
    скриншот   скриншот   скриншот   скриншот   скриншот   скриншот   скриншот  
    скриншот  

    Раздача ведётся путём добавления новых серий. Добавлена 8 серия (21.04.2016).Просьба перекачать торрент файл.

    pb.wtf



  • Скачать Слешер через торрент http://pic1.kartinco.top/images/10/bdxfg.jpg Скачать фильм Слешер через торрент бесплантно в хорошем качестве qw.png Сара Беннетт, молодая женщина, которая возвращается в небольшой город, где родилась, и обнаруживает себя в центре ужасающей серии ... 8.4 10 11
    Info! Золотая раздача, скачанное не засчитывается.
    Торрент: Зарегистрирован [2016-04-21 11:12] · скачан: 106 раз
    Статус: √ проверено
    Размер: 5.94 GB
    Как cкачать? Как скачать Слешер через торрент | qTorrent

    28-11-2019 20:33  

    Отключить всю рекламу на сайте

      Дорогой пользователь! Огромная просьба, поблагодарите релизера, оцените раздачу и оставьте свои комментарий, если Вы скачали Слешер через торрент бесплатно! Внесите свою лепту в развитие PiratBit!
      Комментировать посты могут только пользователи прошедшие не сложную регистрацию
      Показать сообщения:    

      Слешер через торрент
      Скачать бесплатно Слешер
      Слешер скачать торрент
      Слешер смотреть онлайн
      Cкачать фильм Слешер бесплатно
      Слешер скачать торрент в хорошем качестве
      Слешер смотреть онлайн бесплатно в хорошем качестве


      Вы не можете начинать темы
      Вы не можете отвечать на сообщения
      Вы не можете редактировать свои сообщения
      Вы не можете удалять свои сообщения
      Вы не можете голосовать в опросах
      Вы не можете прикреплять файлы к сообщениям
      Вы можете скачивать файлы