2 сезон

iTunes

1 сезон

1

iTunes

iTunes

iTunes

1 сезон

RePack

30

ИГРА 18+

pack

ВАЖНО

!!Акция!!

Alien_RageХит недели

RePack

MK11
pack

Забери бонус

RePack

jed

!!Акция!!

Alien_Rage

RePack

fifa19

RePack

Assassins Creed: Odyssey

RePack

NEED FOR SPEED™ PAYBACK

4 сезон

9 сезон

Бесстыжие 9 сезон

Все сериалы

все сериалы на PB.wtf

RePack

FAR CRY 5
  

По ту сторону кровати / De l'autre cote du lit (Паскал Пузаду) [2008, комедия, BDRip 720p by msltel] DUB, AVO pb.wtf

По ту сторону кровати через торрент pb.wtf

Размер: 3.84 GB | Добавлен: 4 года 7 мес. назад | Торрент скачан:125 раз
Скачать  

09-03-2016 09:18 По ту сторону кровати Скачать торрент  

Название: По ту сторону кровати
Оригинальное название: De l'autre cote du lit
Год выпуска: 2008
Страна: Франция
Жанр: комедия
Продолжительность: 01:33:17
Перевод: дублированный, авторский

Режиссёр: Паскал Пузаду

В ролях: Софи Марсо, Дани Бун, Антуан Дюлери, Ролан Жиро, Анни Дюпре, Жюльет Арно, Нинон Могер, Клемо Кутюр, Франсуа Винчентелли, Дэльфин Ривьер, Арсен Моска, Эрик Фратичелли, Патрик Пальмеро, Филипп Бенард, Рафаэл Камбрей, Оливье Бельмондо, Мари-Кристин Демарест, Ариель Семенофф, Изабелль Жаке, Натали Бойло, Виктория Станьи, Мари-Лор Бертелин, Мишель Дюлери, Анико Чавачавадзе, Тони Готье, Клод Пузаду, Бланш Рейналь, Сэмюэл Амар

Описание: «Это невозможно! Что ты делаешь целыми днями?! Я не могу всё делать за тебя!» — примерно так ругаются некоторые супруги после нескольких лет, прожитых вместе. Ариадна и Хьюго вместе уже 10 лет, и их семейная жизнь давно превратилась в рутину и взаимные упрёки. И однажды их терпению приходит конец. Они решают поменяться местами. Теперь муж будет вести всё домашнее хозяйство и смотреть за детьми, а жена делать карьеру и ездить на деловые встречи. Тут-то и возникает множество забавных и комичных ситуаций, которые станут настоящей проверкой для них. Так ли беззаботна жизнь на другой стороне постели?... Фильм снят по одноименной книге Аликс Жиро де л`Эн.



Качество: BDRip 720p Сравнение с исходником
Формат: MKV
Видео: MPEG-4 AVC, 4541 Кбит/с, 1280x548, 23,976 кадра/с
Аудио 1: русский, AC3, 448 kbps, 6 ch, 48 kHz [дублированный, Blu-ray]
Аудио 2: русский, AC3, 448 kbps, 6 ch, 48 kHz [авторский, Антон Алексеев]
Аудио 3: французский, AC3, 448 kbps, 6 ch, 48 kHz [оригинал]
Общее
Уникальный идентификатор : 172845382578231186863428764456226077524 (0x8208CF4F6C47B0E9BEE346A2F3073B54)
Полное имя : D:\Video\По ту сторону кровати.2008.BDRip.720p.mkv
Формат : Matroska
Версия формата : Version 4 / Version 2
Размер файла : 3,84 Гбайт
Продолжительность : 1 ч. 33 м.
Общий поток : 5888 Кбит/сек
Дата кодирования : UTC 2016-03-09 04:28:05
Программа кодирования : mkvmerge v8.2.0 ('World of Adventure') 64bit
Библиотека кодирования : libebml v1.3.1 + libmatroska v1.4.2

Видео
Идентификатор : 1
Формат : AVC
Формат/Информация : Advanced Video Codec
Профиль формата : High@L4.1
Параметр CABAC формата : Да
Параметр ReFrames формата : 9 кадров
Идентификатор кодека : V_MPEG4/ISO/AVC
Продолжительность : 1 ч. 33 м.
Битрейт : 4541 Кбит/сек
Ширина : 1280 пикселей
Высота : 548 пикселей
Соотношение сторон : 2,35:1
Режим частоты кадров : Постоянный
Частота кадров : 23,976 (24000/1001) кадра/сек
Цветовое пространство : YUV
Субдискретизация насыщенности : 4:2:0
Битовая глубина : 8 бит
Тип развёртки : Прогрессивная
Бит/(Пиксели*Кадры) : 0.270
Размер потока : 2,96 Гбайт (77%)
Библиотека кодирования : x264 core 146 r2538 121396c
Настройки программы : cabac=1 / ref=9 / deblock=1:-2:-2 / analyse=0x3:0x113 / me=umh / subme=10 / psy=1 / psy_rd=1.00:0.15 / mixed_ref=1 / me_range=32 / chroma_me=1 / trellis=2 / 8x8dct=1 / cqm=0 / deadzone=21,11 / fast_pskip=1 / chroma_qp_offset=-3 / threads=6 / lookahead_threads=1 / sliced_threads=0 / nr=0 / decimate=1 / interlaced=0 / bluray_compat=0 / constrained_intra=0 / bframes=9 / b_pyramid=2 / b_adapt=2 / b_bias=0 / direct=1 / weightb=1 / open_gop=0 / weightp=2 / keyint=230 / keyint_min=23 / scenecut=40 / intra_refresh=0 / rc_lookahead=40 / rc=crf / mbtree=0 / crf=19.0 / qcomp=0.60 / qpmin=0 / qpmax=69 / qpstep=4 / vbv_maxrate=40000 / vbv_bufsize=50000 / crf_max=0.0 / nal_hrd=none / filler=0 / ip_ratio=1.40 / pb_ratio=1.30 / aq=1:1.00
Язык : French
Default : Да
Forced : Нет

Аудио #1
Идентификатор : 2
Формат : AC-3
Формат/Информация : Audio Coding 3
Расширение режима : CM (complete main)
Параметр Endianness формата : Big
Идентификатор кодека : A_AC3
Продолжительность : 1 ч. 33 м.
Вид битрейта : Постоянный
Битрейт : 448 Кбит/сек
Каналы : 6 каналов
Расположение каналов : Front: L C R, Side: L R, LFE
Частота : 48,0 КГц
Частота кадров : 31,250 кадров/сек (1536 spf)
Метод сжатия : С потерями
Размер потока : 299 Мбайт (8%)
Заголовок : DUB (Blu-ray)
Язык : Russian
Default : Да
Forced : Нет

Аудио #2
Идентификатор : 3
Формат : AC-3
Формат/Информация : Audio Coding 3
Расширение режима : CM (complete main)
Параметр Endianness формата : Big
Идентификатор кодека : A_AC3
Продолжительность : 1 ч. 33 м.
Вид битрейта : Постоянный
Битрейт : 448 Кбит/сек
Каналы : 6 каналов
Расположение каналов : Front: L C R, Side: L R, LFE
Частота : 48,0 КГц
Частота кадров : 31,250 кадров/сек (1536 spf)
Метод сжатия : С потерями
Размер потока : 299 Мбайт (8%)
Заголовок : AVO (Антон Алексеев)
Язык : Russian
Default : Нет
Forced : Нет

Аудио #3
Идентификатор : 4
Формат : AC-3
Формат/Информация : Audio Coding 3
Расширение режима : CM (complete main)
Параметр Endianness формата : Big
Идентификатор кодека : A_AC3
Продолжительность : 1 ч. 33 м.
Вид битрейта : Постоянный
Битрейт : 448 Кбит/сек
Каналы : 6 каналов
Расположение каналов : Front: L C R, Side: L R, LFE
Частота : 48,0 КГц
Частота кадров : 31,250 кадров/сек (1536 spf)
Метод сжатия : С потерями
Размер потока : 299 Мбайт (8%)
Заголовок : Original
Язык : French
Default : Нет
Forced : Нет
pb.wtf



Скачать По ту сторону кровати через торрент http://s017.radikal.ru/i413/1603/28/2fb243f6e147.jpg Скачать фильм По ту сторону кровати через торрент бесплантно в хорошем качестве Описание: «Это невозможно! Что ты делаешь целыми днями?! Я не могу всё делать за тебя!» — примерно так ругаются некоторые супруги после ... 8.1 10 7
Info! Золотая раздача, скачанное не засчитывается.
Торрент: Зарегистрирован [2016-03-09 09:18] · скачан: 125 раз
Статус: √ проверено
Размер: 3.84 GB
Как cкачать? Как скачать По ту сторону кровати через торрент | qTorrent

28-11-2019 20:33  

Отключить всю рекламу на сайте

15-03-2016 20:49 По ту сторону кровати Скачать торрент  

Софи, обожаю..pb.wtf



    Дорогой пользователь! Огромная просьба, поблагодарите релизера, оцените раздачу и оставьте свои комментарий, если Вы скачали По ту сторону кровати через торрент бесплатно! Внесите свою лепту в развитие PiratBit!
    Комментировать посты могут только пользователи прошедшие не сложную регистрацию
    Показать сообщения:    

    По ту сторону кровати через торрент
    Скачать бесплатно По ту сторону кровати
    По ту сторону кровати скачать торрент
    По ту сторону кровати смотреть онлайн
    Cкачать фильм По ту сторону кровати бесплатно
    По ту сторону кровати скачать торрент в хорошем качестве
    По ту сторону кровати смотреть онлайн бесплатно в хорошем качестве


    Вы не можете начинать темы
    Вы не можете отвечать на сообщения
    Вы не можете редактировать свои сообщения
    Вы не можете удалять свои сообщения
    Вы не можете голосовать в опросах
    Вы не можете прикреплять файлы к сообщениям
    Вы можете скачивать файлы