>

7.4

iTunes

7.4

2 сезон

9.4

1 сезон

1

7.4

2 сезон

7.2

iTunes

6.0

MVO

13

6.1

iTunes

8.3

Пиратка

30

ULTIMATE

pack

9.9

Лицензия

ВАЖНО

ИГРА 18+

pack

7.3

RePack

MK11

7.7

RePack

jed

7.8

RePack

fifa19

8.5

RePack

RDR2

RePack

NEED FOR SPEED™ PAYBACK

1 сезон

9 сезон

Бесстыжие 9 сезон

Все сериалы

все сериалы на PB.wtf

RePack

FAR CRY 5

Anonymous, доброй ночи, мы катастрофически не успеваем собрать деньги на оплату серверов, помогите нам пожалуйста 5,10,15р., для нас важна любая помощь . В качестве благодарности мы отключим Вам всю рекламу на сайте (укажите свой ник в строку Ваше имя)!

×
  
Magnet ссылка

Омерзительная восьмерка / The Hateful Eight (Квентин Тарантино / Quentin Tarantino) [2015, триллер, драма, криминал, BDRip-AVC от potroks] AVO pb.wtf

Омерзительная восьмерка через торрент pb.wtf

Размер: 1.46 GB | Добавлен: 5 лет 10 мес. назад | Торрент скачан:754 раза
Смотреть онлайн Омерзительная восьмерка | Скачать    Ребята, помогите собрать деньги на оплату серверов!!!

09-03-2016 13:01 Омерзительная восьмерка Скачать торрент  

Омерзительная восьмерка / The Hateful Eight
«Без хорошей причины сюда не лезут»
Год выпуска: 2015
Страна: США / The Weinstein Company LLC
Жанр: триллер, драма, криминал, детектив, вестерн
Продолжительность: 02:47:55
Перевод: Авторский (одноголосый) [А.Матвеев]
Субтитры: русские (x2)
Навигация по главам: есть
Режиссер: Квентин Тарантино / Quentin Tarantino
В ролях:

Курт Рассел (John Ruth), Сэмюэл Л. Джексон (Major Marquis Warren), Тим Рот (Oswaldo Mobray), Майкл Мэдсен (Joe Gage), Дженнифер Джейсон Ли (Daisy Domergue), Уолтон Гоггинс (Sheriff Chris Mannix), Демиан Бишир (Bob), Брюс Дерн (General Sandy Smithers), Джеймс Паркс (O.B Jackson), Дэна Гурье (Minnie Mink), Зои Белл (Six-Horse Judy), Ли Хорсли (Ed)
Описание: США после Гражданской войны. Легендарный охотник за головами Джон Рут по кличке Вешатель конвоирует заключенную. По пути к ним прибиваются еще несколько путешественников. Снежная буря вынуждает компанию искать укрытие в лавке на отшибе, где уже расположилось весьма пестрое общество: генерал конфедератов, мексиканец, ковбой... И один из них - не тот, за кого себя выдает.

Качество: BDRip-AVC
Формат: MKV
Видео кодек: AVC
Аудио кодек: AC3
Видео: 948x344 (2.759), 1119 kbps, 23,976 fps, 0.143 bit/pixel
Аудио: AC3 / 2.0 / 48 kHz / 128 kbps / 16 bit

Матвеев и Есарев отдельно

Релиз группы:
Автор рипа: potroks

Код:

Общее
Уникальный идентификатор : 252790087387115039125089017808292305640 (0xBE2D9992AC6F3696A4A33A210B265AE8)
Полное имя : Omerzitelnaya.Vosmerka.2015.RUS.BDRip.x264.-HELLYWOOD.mkv
Формат : Matroska
Версия формата : Version 4 / Version 2
Размер файла : 1,46 Гбайт
Продолжительность : 2 ч. 47 м.
Общий поток : 1249 Кбит/сек
Название фильма : The Hateful Eight (2015) - HELLYWOOD
Дата кодирования : UTC 2016-03-09 10:36:32
Программа кодирования : mkvmerge v5.9.0 ('On The Loose') built on Dec 15 2012 16:39:58
Библиотека кодирования : libebml v1.3.0 + libmatroska v1.4.0

Видео
Идентификатор : 1
Формат : AVC
Формат/Информация : Advanced Video Codec
Профиль формата : High@L4.1
Параметр CABAC формата : Да
Параметр ReFrames формата : 12 кадров
Идентификатор кодека : V_MPEG4/ISO/AVC
Продолжительность : 2 ч. 47 м.
Битрейт : 1119 Кбит/сек
Ширина : 948 пикселей
Высота : 344 пикселя
Соотношение сторон : 2,756
Режим частоты кадров : Постоянный
Частота кадров : 23,976 кадра/сек
Цветовое пространство : YUV
Субдискретизация насыщенности : 4:2:0
Битовая глубина : 8 бит
Тип развёртки : Прогрессивная
Бит/(Пиксели*Кадры) : 0.143
Размер потока : 1,28 Гбайт (88%)
Заголовок : potroks
Библиотека кодирования : x264 core 148 r2665M a01e339
Настройки программы : cabac=1 / ref=12 / deblock=1:-2:-2 / analyse=0x3:0x133 / me=umh / subme=11 / psy=1 / psy_rd=1.02:0.10 / mixed_ref=1 / me_range=48 / chroma_me=1 / trellis=2 / 8x8dct=1 / cqm=0 / deadzone=21,11 / fast_pskip=0 / chroma_qp_offset=-3 / threads=11 / lookahead_threads=2 / sliced_threads=0 / nr=0 / decimate=1 / interlaced=0 / bluray_compat=0 / constrained_intra=0 / bframes=13 / b_pyramid=2 / b_adapt=2 / b_bias=0 / direct=3 / weightb=1 / open_gop=0 / weightp=2 / keyint=240 / keyint_min=23 / scenecut=40 / intra_refresh=0 / rc=2pass / mbtree=0 / bitrate=1119 / ratetol=1.0 / qcomp=0.70 / qpmin=0 / qpmax=69 / qpstep=4 / cplxblur=20.0 / qblur=0.5 / ip_ratio=1.40 / pb_ratio=1.30 / aq=1:0.80
Язык : English
Default : Да
Forced : Нет

Аудио
Идентификатор : 2
Формат : AC-3
Формат/Информация : Audio Coding 3
Расширение режима : CM (complete main)
Параметр Endianness формата : Big
Идентификатор кодека : A_AC3
Продолжительность : 2 ч. 47 м.
Вид битрейта : Постоянный
Битрейт : 128 Кбит/сек
Каналы : 2 канала
Расположение каналов : Front: L R
Частота : 48,0 КГц
Метод сжатия : С потерями
Размер потока : 154 Мбайт (10%)
Заголовок : AVO | DD 2.0 @ 128 kbps - A.Matveev
Язык : Russian
Default : Да
Forced : Нет

Текст #1
Идентификатор : 3
Формат : UTF-8
Идентификатор кодека : S_TEXT/UTF8
Идентификатор кодека/Информация : UTF-8 Plain Text
Заголовок : Translation: Ruslan Akhmetov
Язык : Russian
Default : Нет
Forced : Нет

Текст #2
Идентификатор : 4
Формат : UTF-8
Идентификатор кодека : S_TEXT/UTF8
Идентификатор кодека/Информация : UTF-8 Plain Text
Заголовок : A.Matveev
Язык : Russian
Default : Нет
Forced : Нет

Меню
00:00:00.000 : :Chapter 1
00:04:33.523 : :Chapter 2
00:11:36.111 : :Chapter 3
00:22:01.361 : :Chapter 4
00:35:02.431 : :Chapter 5
00:43:31.900 : :Chapter 6
00:52:12.211 : :Chapter 7
00:59:04.498 : :Chapter 8
01:08:30.314 : :Chapter 9
01:16:10.856 : :Chapter 10
01:25:18.445 : :Chapter 11
01:35:06.492 : :Chapter 12
01:42:20.175 : :Chapter 13
01:50:33.335 : :Chapter 14
01:59:32.497 : :Chapter 15
02:06:43.052 : :Chapter 16
02:13:26.622 : :Chapter 17
02:19:59.724 : :Chapter 18
02:24:17.022 : :Chapter 19
02:34:08.111 : :Chapter 20
02:39:38.025 : :Chapter 21
02:43:22.751 : :Chapter 22

pb.wtf



Скачать Омерзительная восьмерка через торрент http://i76.fastpic.ru/big/2016/0309/66/b0c38ee0f44f9bc2aa19cd7e098a7266.png Скачать, смотреть онлайн Омерзительная восьмерка бесплантно в хорошем качестве Описание: США после Гражданской войны. Легендарный охотник за головами Джон Рут по кличке Вешатель конвоирует заключенную. По пути к ним ... 8.6 10 26
Info! Золотая раздача, скачанное не засчитывается.
Торрент: Зарегистрирован [2016-03-09 13:01] · скачан: 754 раз
Статус: √ проверено
Размер: 1.46 GB
Как cкачать? Как скачать Омерзительная восьмерка через торрент | UTorrent

% Раздел Тема Автор DL S | L
Фильмы (HD 720p, 1080p) (48-60 fps) [ 5.44 GB ] Омерзительная восьмерка / The Hateful Eight [2015 BDRip 1080p / 60 FPS AVO Матвеев] dd2d3 Скачать
1 | 0
Фильмы (Blu-ray, BD-Remux, HDDVD) [ 65.73 GB ] Омерзительная восьмерка / The Hateful Eight [2015 BDRemux 1080p] DUB + 6xAVO sheker187 Скачать
1 | 0
Фильмы [HD 720p, 1080p] (Хороший звук DUB, MVO) [ 10.72 GB ] Омерзительная восьмёрка / The Hateful Eight [2015 BDRip-HEVC 1080p ] 4xAVO+DUB [] bober100 Скачать
1 | 0
Фильмы [HD 720p, 1080p] (Хороший звук DUB, MVO) [ 15.52 GB ] Омерзительная восьмерка / The Hateful Eight [2015 BDRip 720p] 2xDUB+MVO+3xAVO bober100 Скачать
1 | 0
Фильмы [HD 720p, 1080p] (Хороший звук DUB, MVO) [ 9.46 GB ] Омерзительная восьмерка / The Hateful Eight [2015 BDRip 720p] DUB AVO potroks Скачать
1 | 0
Фильмы [HD 720p, 1080p] (Хороший звук DUB, MVO) [ 8.41 GB ] Омерзительная восьмерка / The Hateful Eight [2015 BDRip 720p] DUB AVO potroks Скачать
1 | 0
Фильмы с авторской озвучкой [ 2.92 GB ] Омерзительная восьмерка / The Hateful Eight [2015 BDRip-AVC] AVO potroks Скачать
1 | 0

28-11-2019 20:33  

Отключить всю рекламу на сайте

09-03-2016 21:36 Омерзительная восьмерка Скачать торрент  

Феерично! Посмотрел на одном дыхании! Однозначно 5!pb.wtf



15-03-2016 19:35 Омерзительная восьмерка Скачать торрент  

пять балов pb.wtf



16-03-2016 11:19 Омерзительная восьмерка Скачать торрент  

pb.wtf



    Дорогой пользователь! Огромная просьба, поблагодарите релизера, оцените раздачу и оставьте свои комментарий, если Вы скачали Омерзительная восьмерка через торрент бесплатно!
    Комментировать посты могут только пользователи прошедшие не сложную регистрацию
    Показать сообщения:    

    Омерзительная восьмерка через торрент
    Скачать бесплатно Омерзительная восьмерка
    Омерзительная восьмерка скачать торрент
    Омерзительная восьмерка смотреть онлайн
    Cкачать фильм Омерзительная восьмерка бесплатно
    Омерзительная восьмерка скачать торрент в хорошем качестве
    Омерзительная восьмерка смотреть онлайн бесплатно в хорошем качестве


    Вы не можете начинать темы
    Вы не можете отвечать на сообщения
    Вы не можете редактировать свои сообщения
    Вы не можете удалять свои сообщения
    Вы не можете голосовать в опросах
    Вы не можете прикреплять файлы к сообщениям
    Вы можете скачивать файлы