2 сезон

iTunes

1 сезон

1

iTunes

iTunes

iTunes

1 сезон

RePack

30

ИГРА 18+

pack

ВАЖНО

!!Акция!!

Alien_RageХит недели

RePack

MK11
pack

Забери бонус

RePack

jed

!!Акция!!

Alien_Rage

RePack

fifa19

RePack

Assassins Creed: Odyssey

RePack

NEED FOR SPEED™ PAYBACK

4 сезон

9 сезон

Бесстыжие 9 сезон

Все сериалы

все сериалы на PB.wtf

RePack

FAR CRY 5
  

Виктор Франкенштейн / Victor Frankenstein (Пол МакГиган / Paul McGuigan) [2015, ужасы, фантастика, драма, BDRip 720p от potroks] DUB Лицензия pb.wtf

Виктор Франкенштейн через торрент pb.wtf

Размер: 4.37 GB | Добавлен: 4 года 7 мес. назад | Торрент скачан:297 раз
Скачать  

10-03-2016 07:02 Виктор Франкенштейн Скачать торрент  

Виктор Франкенштейн / Victor Frankenstein
«Монстр создал монстра»
Год выпуска: 2015
Страна: США / 20th Century Fox Film Corporation, Davis Entertainment...
Жанр: ужасы, фантастика, драма
Продолжительность: 01:49:51
Перевод: Дубляж [BD CEE]
Субтитры: русские (Forced (x2)), русские (iTunes), украинские (полные + форс.), английские (Full + SDH)
Навигация по главам: есть
Режиссер: Пол МакГиган / Paul McGuigan
В ролях:

Дэниэл Рэдклифф (Igor), Джеймс МакЭвой (Victor Frankenstein), Джессика Браун-Финдли (Lorelei), Бронсон Уэбб (Rafferty), Дэниэл Мейс (Barnaby), Спенсер Уидлинг (Nathaniel / Prometheus 2), Робин Пирс (Baron Bomine), Эндрю Скотт (Inspector Turpin), Каллум Тернер (Alistair), Ди Ботчер (Older Nun), Ив Понсонби (Orderly), Уилл Кин (Surgeon)
Описание: Новый взгляд на фантастическую историю Виктора Франкенштейна, на этот раз - с точки зрения его помощника Игоря.

Качество: BDRip 720p
Формат: MKV
Видео кодек: AVC
Аудио кодек: AC3
Видео: 1280x534 (2.40:1), 4356 kbps, 23,976 fps, 0.266 bit/pixel
Аудио#1: AC3 / 5.1 / 48 kHz / 448 kbps / 16 bit | RUS
Аудио#2: AC3 / 5.1 / 48 kHz / 448 kbps / 16 bit | UKR
Аудио#3: AC3 / 5.1 / 48 kHz / 448 kbps / 16 bit | ENG

Релиз группы:
Автор рипа: potroks

Код:

Общее
Уникальный идентификатор : 248484313565660748071304039216282506955 (0xBAF0568885A5DCA892EF08E7B08A96CB)
Полное имя : Viktor.Frankenshteyn.2015.TRIPLE.BDRip.720p.-HELLYWOOD.mkv
Формат : Matroska
Версия формата : Version 4 / Version 2
Размер файла : 4,37 Гбайт
Продолжительность : 1 ч. 49 м.
Общий поток : 5699 Кбит/сек
Название фильма : Victor Frankenstein (2015) - HELLYWOOD
Дата кодирования : UTC 2016-03-10 06:29:12
Программа кодирования : mkvmerge v5.9.0 ('On The Loose') built on Dec 15 2012 16:39:58
Библиотека кодирования : libebml v1.3.0 + libmatroska v1.4.0

Видео
Идентификатор : 1
Формат : AVC
Формат/Информация : Advanced Video Codec
Профиль формата : High@L4.1
Параметр CABAC формата : Да
Параметр ReFrames формата : 9 кадров
Идентификатор кодека : V_MPEG4/ISO/AVC
Продолжительность : 1 ч. 49 м.
Битрейт : 4356 Кбит/сек
Ширина : 1280 пикселей
Высота : 534 пикселя
Соотношение сторон : 2,40:1
Режим частоты кадров : Постоянный
Частота кадров : 23,976 кадра/сек
Цветовое пространство : YUV
Субдискретизация насыщенности : 4:2:0
Битовая глубина : 8 бит
Тип развёртки : Прогрессивная
Бит/(Пиксели*Кадры) : 0.266
Размер потока : 3,25 Гбайт (74%)
Заголовок : potroks
Библиотека кодирования : x264 core 146 r2538 121396c
Настройки программы : cabac=1 / ref=9 / deblock=1:-3:-3 / analyse=0x3:0x113 / me=umh / subme=11 / psy=1 / psy_rd=1.04:0.05 / mixed_ref=1 / me_range=48 / chroma_me=1 / trellis=2 / 8x8dct=1 / cqm=0 / deadzone=21,11 / fast_pskip=0 / chroma_qp_offset=-3 / threads=9 / lookahead_threads=2 / sliced_threads=0 / nr=0 / decimate=0 / interlaced=0 / bluray_compat=0 / constrained_intra=0 / bframes=10 / b_pyramid=2 / b_adapt=2 / b_bias=0 / direct=3 / weightb=1 / open_gop=0 / weightp=2 / keyint=240 / keyint_min=23 / scenecut=40 / intra_refresh=0 / rc_lookahead=60 / rc=2pass / mbtree=0 / bitrate=4356 / ratetol=1.0 / qcomp=0.70 / qpmin=0 / qpmax=69 / qpstep=4 / cplxblur=20.0 / qblur=0.5 / vbv_maxrate=14000 / vbv_bufsize=14000 / nal_hrd=none / filler=0 / ip_ratio=1.40 / pb_ratio=1.30 / aq=1:0.80
Язык : English
Default : Да
Forced : Нет

Аудио #1
Идентификатор : 2
Формат : AC-3
Формат/Информация : Audio Coding 3
Расширение режима : CM (complete main)
Параметр Endianness формата : Big
Идентификатор кодека : A_AC3
Продолжительность : 1 ч. 49 м.
Вид битрейта : Постоянный
Битрейт : 448 Кбит/сек
Каналы : 6 каналов
Расположение каналов : Front: L C R, Side: L R, LFE
Частота : 48,0 КГц
Метод сжатия : С потерями
Размер потока : 352 Мбайт (8%)
Заголовок : Dub | DD 5.1 @ 448 kbps - Blu-Ray CEE
Язык : Russian
Default : Да
Forced : Нет

Аудио #2
Идентификатор : 3
Формат : AC-3
Формат/Информация : Audio Coding 3
Расширение режима : CM (complete main)
Параметр Endianness формата : Big
Идентификатор кодека : A_AC3
Продолжительность : 1 ч. 49 м.
Вид битрейта : Постоянный
Битрейт : 448 Кбит/сек
Каналы : 6 каналов
Расположение каналов : Front: L C R, Side: L R, LFE
Частота : 48,0 КГц
Метод сжатия : С потерями
Размер потока : 352 Мбайт (8%)
Заголовок : Dub | DD 5.1 @ 448 kbps - Blu-Ray CEE
Язык : Ukrainian
Default : Нет
Forced : Нет

Аудио #3
Идентификатор : 4
Формат : AC-3
Формат/Информация : Audio Coding 3
Расширение режима : CM (complete main)
Параметр Endianness формата : Big
Идентификатор кодека : A_AC3
Продолжительность : 1 ч. 49 м.
Вид битрейта : Постоянный
Битрейт : 448 Кбит/сек
Каналы : 6 каналов
Расположение каналов : Front: L C R, Side: L R, LFE
Частота : 48,0 КГц
Метод сжатия : С потерями
Размер потока : 352 Мбайт (8%)
Заголовок : Original | DD 5.1 @ 448 kbps
Язык : English
Default : Нет
Forced : Нет

Текст #1
Идентификатор : 5
Формат : UTF-8
Идентификатор кодека : S_TEXT/UTF8
Идентификатор кодека/Информация : UTF-8 Plain Text
Заголовок : Forced [potroks]
Язык : Russian
Default : Да
Forced : Нет

Текст #2
Идентификатор : 6
Формат : UTF-8
Идентификатор кодека : S_TEXT/UTF8
Идентификатор кодека/Информация : UTF-8 Plain Text
Заголовок : Forced [iTunes]
Язык : Russian
Default : Нет
Forced : Нет

Текст #3
Идентификатор : 7
Формат : UTF-8
Идентификатор кодека : S_TEXT/UTF8
Идентификатор кодека/Информация : UTF-8 Plain Text
Заголовок : iTunes
Язык : Russian
Default : Нет
Forced : Нет

Текст #4
Идентификатор : 8
Формат : UTF-8
Идентификатор кодека : S_TEXT/UTF8
Идентификатор кодека/Информация : UTF-8 Plain Text
Заголовок : Forced
Язык : Ukrainian
Default : Нет
Forced : Нет

Текст #5
Идентификатор : 9
Формат : UTF-8
Идентификатор кодека : S_TEXT/UTF8
Идентификатор кодека/Информация : UTF-8 Plain Text
Заголовок : iTunes
Язык : Ukrainian
Default : Нет
Forced : Нет

Текст #6
Идентификатор : 10
Формат : UTF-8
Идентификатор кодека : S_TEXT/UTF8
Идентификатор кодека/Информация : UTF-8 Plain Text
Заголовок : Full
Язык : English
Default : Нет
Forced : Нет

Текст #7
Идентификатор : 11
Формат : UTF-8
Идентификатор кодека : S_TEXT/UTF8
Идентификатор кодека/Информация : UTF-8 Plain Text
Заголовок : SDH
Язык : English
Default : Нет
Forced : Нет

Меню
00:00:00.000 : en:(01)00:00:00:000
00:04:07.372 : en:(02)00:04:07:372
00:08:06.903 : en:(03)00:08:06:903
00:11:14.673 : en:(04)00:11:14:673
00:15:20.376 : en:(05)00:15:20:376
00:18:58.554 : en:(06)00:18:58:554
00:22:27.261 : en:(07)00:22:27:261
00:26:06.855 : en:(08)00:26:06:855
00:28:59.237 : en:(09)00:28:59:237
00:32:02.377 : en:(10)00:32:02:377
00:36:01.449 : en:(11)00:36:01:449
00:41:11.427 : en:(12)00:41:11:427
00:46:17.690 : en:(13)00:46:17:690
00:51:48.480 : en:(14)00:51:48:480
00:56:42.690 : en:(15)00:56:42:690
00:59:55.507 : en:(16)00:59:55:507
01:02:37.586 : en:(17)01:02:37:586
01:06:57.179 : en:(18)01:06:57:179
01:11:25.197 : en:(19)01:11:25:197
01:15:14.051 : en:(20)01:15:14:051
01:18:10.350 : en:(21)01:18:10:350
01:21:06.278 : en:(22)01:21:06:278
01:25:20.488 : en:(23)01:25:20:488
01:28:17.542 : en:(24)01:28:17:542
01:33:35.274 : en:(25)01:33:35:274
01:37:51.782 : en:(26)01:37:51:782
01:41:32.920 : en:(27)01:41:32:920
01:43:34.373 : en:(28)01:43:34:373
01:49:49.623 : en:(29)01:49:49:623

pb.wtf



Скачать Виктор Франкенштейн через торрент http://i76.fastpic.ru/big/2016/0228/3c/e0fdaff1ecf4c5d954a5ff66eb0a183c.png Скачать фильм Виктор Франкенштейн через торрент бесплантно в хорошем качестве Описание: Новый взгляд на фантастическую историю Виктора Франкенштейна, на этот раз - с точки зрения его помощника ... 9.5 10 6
Info! Золотая раздача, скачанное не засчитывается.
Торрент: Зарегистрирован [2016-03-10 07:02] · скачан: 297 раз
Статус: √ проверено
Размер: 4.37 GB
Как cкачать? Как скачать Виктор Франкенштейн через торрент | qTorrent

% Раздел Тема Автор DL S | L
Ultra HD (UHD: 2K, 4K, 8K) — видео сверхвысокой чёткости [ 24.05 GB ] Виктор Франкенштейн / Victor Frankenstein [2015 UHD WEBRip 2160p] DUB [] sheker187 Скачать
1 | 0
Фильмы 2015 [DVDrip, WEB-DLRip, HDrip] [ 1.46 GB ] Виктор Франкенштейн / Victor Frankenstein (2015 WEB-DLRip] Dub Twi7ter Скачать
1 | 0
Фильмы (Blu-ray, BD-Remux, HDDVD) [ 45.74 GB ] Виктор Франкенштейн / Victor Frankenstein [2015 Blu-Ray EUR] DUB Russian Mafia Скачать
1 | 0
Фильмы 2015 [DVDrip, WEB-DLRip, HDrip] [ 744 MB ] Виктор Франкенштейн / Victor Frankenstein [2015 HDRip by _Один_777] Dub () Один 777 Скачать
1 | 0
Фильмы (Blu-ray, BD-Remux, HDDVD) [ 28.59 GB ] Виктор Франкенштейн / Victor Frankenstein [2015 BDRemux 1080p] DUB Russian Mafia Скачать
1 | 0
Фильмы 2015 [DVDrip, WEB-DLRip, HDrip] [ 2.18 GB ] Виктор Франкенштейн / Victor Frankenstein [2015 BDRip-AVC] DUB potroks Скачать
1 | 0
Фильмы 2015 [DVDrip, WEB-DLRip, HDrip] [ 1.46 GB ] Виктор Франкенштейн / Victor Frankenstein [2015 BDRip-AVC] DUB potroks Скачать
1 | 0

28-11-2019 20:33  

Отключить всю рекламу на сайте

    Дорогой пользователь! Огромная просьба, поблагодарите релизера, оцените раздачу и оставьте свои комментарий, если Вы скачали Виктор Франкенштейн через торрент бесплатно! Внесите свою лепту в развитие PiratBit!
    Комментировать посты могут только пользователи прошедшие не сложную регистрацию
    Показать сообщения:    

    Виктор Франкенштейн через торрент
    Скачать бесплатно Виктор Франкенштейн
    Виктор Франкенштейн скачать торрент
    Виктор Франкенштейн смотреть онлайн
    Cкачать фильм Виктор Франкенштейн бесплатно
    Виктор Франкенштейн скачать торрент в хорошем качестве
    Виктор Франкенштейн смотреть онлайн бесплатно в хорошем качестве


    Вы не можете начинать темы
    Вы не можете отвечать на сообщения
    Вы не можете редактировать свои сообщения
    Вы не можете удалять свои сообщения
    Вы не можете голосовать в опросах
    Вы не можете прикреплять файлы к сообщениям
    Вы можете скачивать файлы