Ссылка на приватное зеркало нашего сайта всего за 1$. Внимание количество ограничено!!!

2 сезон

iTunes

1 сезон

1

2 сезон

2 сезон

iTunes

1 сезон

RePack

30

Ultimate

ВАЖНО

ИГРА 18+

pack

RePack

MK11
pack

Забери бонус

RePack

jed

!!Акция!!

Alien_Rage

RePack

fifa19

RePack

Assassins Creed: Odyssey

RePack

NEED FOR SPEED™ PAYBACK

4 сезон

9 сезон

Бесстыжие 9 сезон

Все сериалы

все сериалы на PB.wtf

RePack

FAR CRY 5
  

Макбет / Macbeth (Джастин Курзель / Justin Kurzel) [2015, драма, военный, BDRip-AVC от potroks] [Лицензия] pb.wtf

Макбет через торрент pb.wtf

Размер: 2.18 GB | Добавлен: 4 года 8 мес. назад | Торрент скачан:357 раз
Скачать  

11-03-2016 02:38 Макбет Скачать торрент  

Макбет / Macbeth
«Кровь порождает кровь»
Год выпуска: 2015
Страна: Великобритания, Франция, США / Studio Canal, Film 4
Жанр: драма, военный
Продолжительность: 01:52:51
Перевод: Дубляж [R5]
Субтитры: русские, английские (Full), английские (SDH)
Навигация по главам: есть
Режиссер: Джастин Курзель / Justin Kurzel
В ролях:

Майкл Фассбендер (Macbeth), Марион Котийяр (Lady Macbeth), Пэдди Консидайн (Banquo), Шон Харрис (Macduff), Джек Рейнор (Malcolm), Элизабет Дебики (Lady Macduff), Дэвид Тьюлис (Duncan), Росс Андерсон (Rosse), Дэвид Хейман (Lennox), Морис Роевз (Menteith), Хилтон МакРэй (Macdonwald), Сейлан Бакстер (Older Witch)
Описание: Холодные поля Шотландии, военный лагерь, всегда готовый переместиться в другое место. Макбет всегда на войне, его жена, недавно потерявшая ребенка, боится потерять еще и мужа. Чтобы удержать его рядом, она начинает свой проект по устранению конкурентов в борьбе за королевскую корону.

Качество: BDRip-AVC
Формат: MKV
Видео кодек: AVC
Аудио кодек: AC3
Видео: 1084x454 (2.40:1), 1869 kbps, 24 fps, 0.158 bit/pixel
Аудио#1: AC3 / 5.1 / 48 kHz / 448 kbps / 16 bit | RUS
Аудио#2: AC3 / 5.1 / 48 kHz / 448 kbps / 16 bit | ENG

Релиз группы:
Автор рипа: potroks

Код:

Общее
Уникальный идентификатор : 234087540617362582000168940239904356516 (0xB01B9ED313F5BA0996474C0EBD84B8A4)
Полное имя : Makbet.2015.DUAL.BDRip.x264.-HELLYWOOD.mkv
Формат : Matroska
Версия формата : Version 4 / Version 2
Размер файла : 2,18 Гбайт
Продолжительность : 1 ч. 52 м.
Общий поток : 2762 Кбит/сек
Название фильма : Macbeth (2015) - HELLYWOOD
Дата кодирования : UTC 2016-03-11 02:25:43
Программа кодирования : mkvmerge v5.9.0 ('On The Loose') built on Dec 15 2012 16:39:58
Библиотека кодирования : libebml v1.3.0 + libmatroska v1.4.0

Видео
Идентификатор : 1
Формат : AVC
Формат/Информация : Advanced Video Codec
Профиль формата : High@L4.1
Параметр CABAC формата : Да
Параметр ReFrames формата : 10 кадров
Идентификатор кодека : V_MPEG4/ISO/AVC
Продолжительность : 1 ч. 52 м.
Битрейт : 1869 Кбит/сек
Ширина : 1084 пикселя
Высота : 454 пикселя
Соотношение сторон : 2,40:1
Режим частоты кадров : Постоянный
Частота кадров : 24,000 кадра/сек
Цветовое пространство : YUV
Субдискретизация насыщенности : 4:2:0
Битовая глубина : 8 бит
Тип развёртки : Прогрессивная
Бит/(Пиксели*Кадры) : 0.158
Размер потока : 1,43 Гбайт (66%)
Заголовок : potroks
Библиотека кодирования : x264 core 146 r2538 121396c
Настройки программы : cabac=1 / ref=10 / deblock=1:-2:-2 / analyse=0x3:0x113 / me=umh / subme=11 / psy=1 / psy_rd=1.00:0.05 / mixed_ref=1 / me_range=48 / chroma_me=1 / trellis=2 / 8x8dct=1 / cqm=0 / deadzone=21,11 / fast_pskip=0 / chroma_qp_offset=-3 / threads=9 / lookahead_threads=2 / sliced_threads=0 / nr=0 / decimate=0 / interlaced=0 / bluray_compat=0 / constrained_intra=0 / bframes=11 / b_pyramid=2 / b_adapt=2 / b_bias=0 / direct=3 / weightb=1 / open_gop=0 / weightp=2 / keyint=240 / keyint_min=23 / scenecut=40 / intra_refresh=0 / rc_lookahead=60 / rc=2pass / mbtree=0 / bitrate=1869 / ratetol=1.0 / qcomp=0.70 / qpmin=0 / qpmax=69 / qpstep=4 / cplxblur=20.0 / qblur=0.5 / vbv_maxrate=14000 / vbv_bufsize=14000 / nal_hrd=none / filler=0 / ip_ratio=1.40 / pb_ratio=1.30 / aq=1:0.80
Язык : English
Default : Да
Forced : Нет

Аудио #1
Идентификатор : 2
Формат : AC-3
Формат/Информация : Audio Coding 3
Расширение режима : CM (complete main)
Параметр Endianness формата : Big
Идентификатор кодека : A_AC3
Продолжительность : 1 ч. 52 м.
Вид битрейта : Постоянный
Битрейт : 448 Кбит/сек
Каналы : 6 каналов
Расположение каналов : Front: L C R, Side: L R, LFE
Частота : 48,0 КГц
Метод сжатия : С потерями
Размер потока : 362 Мбайт (16%)
Заголовок : Dub | DD 5.1 @ 448 kbps R5
Язык : Russian
Default : Да
Forced : Нет

Аудио #2
Идентификатор : 3
Формат : AC-3
Формат/Информация : Audio Coding 3
Расширение режима : CM (complete main)
Параметр Endianness формата : Big
Идентификатор кодека : A_AC3
Продолжительность : 1 ч. 52 м.
Вид битрейта : Постоянный
Битрейт : 448 Кбит/сек
Каналы : 6 каналов
Расположение каналов : Front: L C R, Side: L R, LFE
Частота : 48,0 КГц
Метод сжатия : С потерями
Размер потока : 362 Мбайт (16%)
Заголовок : Original | DD 5.1 @ 448 kbps
Язык : English
Default : Нет
Forced : Нет

Текст #1
Идентификатор : 4
Формат : UTF-8
Идентификатор кодека : S_TEXT/UTF8
Идентификатор кодека/Информация : UTF-8 Plain Text
Язык : Russian
Default : Нет
Forced : Нет

Текст #2
Идентификатор : 5
Формат : UTF-8
Идентификатор кодека : S_TEXT/UTF8
Идентификатор кодека/Информация : UTF-8 Plain Text
Заголовок : Full
Язык : English
Default : Нет
Forced : Нет

Текст #3
Идентификатор : 6
Формат : UTF-8
Идентификатор кодека : S_TEXT/UTF8
Идентификатор кодека/Информация : UTF-8 Plain Text
Заголовок : SDH
Язык : English
Default : Нет
Forced : Нет

Меню
00:00:00.000 : en:(01)00:00:00:000
00:09:44.500 : en:(02)00:09:44:500
00:18:19.416 : en:(03)00:18:19:416
00:33:11.041 : en:(04)00:33:11:041
00:42:30.625 : en:(05)00:42:30:625
00:51:18.041 : en:(06)00:51:18:041
01:00:19.250 : en:(07)01:00:19:250
01:11:23.125 : en:(08)01:11:23:125
01:16:26.083 : en:(09)01:16:26:083
01:26:24.583 : en:(10)01:26:24:583
01:33:59.916 : en:(11)01:33:59:916
01:46:27.000 : en:(12)01:46:27:000

pb.wtf



Скачать Макбет через торрент http://i75.fastpic.ru/big/2016/0215/09/d591b37cb02eba4fc6013e1bb9060809.png Скачать фильм Макбет через торрент бесплантно в хорошем качестве Описание: Холодные поля Шотландии, военный лагерь, всегда готовый переместиться в другое место. Макбет всегда на войне, его жена, недавно ... 9 10 11
Info! Золотая раздача, скачанное не засчитывается.
Торрент: Зарегистрирован [2016-03-11 02:38] · скачан: 357 раз
Статус: √ проверено
Размер: 2.18 GB
Как cкачать? Как скачать Макбет через торрент | qTorrent

% Раздел Тема Автор DL S | L
Фильмы 2016 [DVDrip, WEB-DLRip, HDrip] (DUB, MVO) [ 1.39 GB ] Леди Макбет / Lady Macbeth [2016 экранизация BDRip-AVC] MVO - ExKinoRay Enigma2010 Скачать
1 | 0
Фильмы [HD 720p, 1080p] (Хороший звук DUB, MVO) [ 8.64 GB ] Леди Макбет / Lady Macbeth [2016 BDRip 1080p] MVO bober100 Скачать
1 | 0
Фильмы 2015 [DVDrip, WEB-DLRip, HDrip] [ 1.46 GB ] Макбет / Macbeth [2015 военный BDRip-AVC] [] potroks Скачать
1 | 0
Фильмы 2015 [DVDrip, WEB-DLRip, HDrip] [ 1.46 GB ] Макбет / Macbeth [2015 военный BDRip] DUB Twi7ter Скачать
2 | 0
Фильмы (DVD фильмы) [ 5.54 GB ] Макбет / Macbeth [2015 военный DVD9] DUB R5 voovaz Скачать
1 | 0
Фильмы 2015 [DVDrip, WEB-DLRip, HDrip] [ 2.18 GB ] Макбет / Macbeth [2015 военный HDRip ""] coc900 Скачать
1 | 0
Фильмы [HD 720p, 1080p] (Хороший звук DUB, MVO) [ 11.54 GB ] Макбет / Macbeth [2015 военный BDRip 1080p / ] Ворон Скачать
1 | 0

28-11-2019 20:33  

Отключить всю рекламу на сайте

    Дорогой пользователь! Огромная просьба, поблагодарите релизера, оцените раздачу и оставьте свои комментарий, если Вы скачали Макбет через торрент бесплатно! Внесите свою лепту в развитие PiratBit!
    Комментировать посты могут только пользователи прошедшие не сложную регистрацию
    Показать сообщения:    

    Макбет через торрент
    Скачать бесплатно Макбет
    Макбет скачать торрент
    Макбет смотреть онлайн
    Cкачать фильм Макбет бесплатно
    Макбет скачать торрент в хорошем качестве
    Макбет смотреть онлайн бесплатно в хорошем качестве


    Вы не можете начинать темы
    Вы не можете отвечать на сообщения
    Вы не можете редактировать свои сообщения
    Вы не можете удалять свои сообщения
    Вы не можете голосовать в опросах
    Вы не можете прикреплять файлы к сообщениям
    Вы можете скачивать файлы