Ссылка на приватное зеркало нашего сайта всего за 1$. Внимание количество ограничено!!!

2 сезон

iTunes

1 сезон

1

iTunes

iTunes

iTunes

1 сезон

RePack

30

ИГРА 18+

pack

ВАЖНО

!!Акция!!

Alien_RageХит недели

RePack

MK11
pack

Забери бонус

RePack

jed

!!Акция!!

Alien_Rage

RePack

fifa19

RePack

Assassins Creed: Odyssey

RePack

NEED FOR SPEED™ PAYBACK

4 сезон

9 сезон

Бесстыжие 9 сезон

Все сериалы

все сериалы на PB.wtf

RePack

FAR CRY 5
  

Триумф / The Greatest Game Ever Played (Билл Пэкстон) [2005, драма, история, спорт, BDRip 1080p by msltel] MVO pb.wtf

Триумф через торрент pb.wtf

Размер: 13.06 GB | Добавлен: 4 года 7 мес. назад | Торрент скачан:58 раз
Скачать  

11-03-2016 08:36 Триумф Скачать торрент  

Название: Триумф
Оригинальное название: The Greatest Game Ever Played
Год выпуска: 2005
Страна: США, Канада
Жанр: драма, история, спорт
Продолжительность: 02:00:32
Перевод: профессиональный многоголосый

Режиссёр: Билл Пэкстон

В ролях: Шайа ЛаБаф, Марни МакПайл, Стивен Диллэйн, Джош Флиттер, Питер Фёрт, Пейтон Лист, Элиас Котеас, Лен Кариу, Стивен Маркус, Джеймс Пэкстон, Мэттью Найт

Описание: Спортивная статистика тщательно регистрирует все рекорды, но лишь живая память способна сохранить драгоценные мгновения триумфа человеческой воли к победе. Ведь сухие цифры на бумаге никогда не передадут того ощущения чуда, которое вызывают некоторые поистине фантастические достижения. А то, что произошло на первенстве по гольфу US Open в 1913 году, уместнее назвать именно чудом. Тогда никому не известный 20-летний паренек Франсис Уиме, считавшийся аутсайдером, наголову разгромил слывшего абсолютно непобедимым чемпиона Гарри Вардона. Причем разгромил элегантно, стильно и не без чувства юмора. Этой одной из ярчайших страниц в истории гольфа, названной современниками битвой Давида и Голиафа, и посвящен данный фильм…



Качество: BDRip 1080p Сравнение с исходником
Формат: MKV
Видео: MPEG-4 AVC, 13.7 Mбит/с, 1920x1036, 23,976 кадра/с
Аудио 1: русский, AC3, 320 kbps, 2 ch, 48 kHz [профессиональный многоголосый, R5]
Аудио 2: английский, DTS, 1509 kbps, 6 ch, 48 kHz [оригинал]
Субтитры 1: русские
Субтитры 2: английские
Общее
Уникальный идентификатор : 196654151453007076427522098110511180564 (0x93F2363EE41A4556865E691B1937EB14)
Полное имя : D:\Video\Триумф.2005.BDRip.1080p.mkv
Формат : Matroska
Версия формата : Version 4 / Version 2
Размер файла : 13,1 Гбайт
Продолжительность : 2 ч. 0 м.
Общий поток : 15,5 Мбит/сек
Дата кодирования : UTC 2016-03-11 03:31:58
Программа кодирования : mkvmerge v8.2.0 ('World of Adventure') 64bit
Библиотека кодирования : libebml v1.3.1 + libmatroska v1.4.2

Видео
Идентификатор : 1
Формат : AVC
Формат/Информация : Advanced Video Codec
Профиль формата : High@L4.1
Параметр CABAC формата : Да
Параметр ReFrames формата : 4 кадра
Идентификатор кодека : V_MPEG4/ISO/AVC
Продолжительность : 2 ч. 0 м.
Битрейт : 13,7 Мбит/сек
Ширина : 1920 пикселей
Высота : 1036 пикселей
Соотношение сторон : 1,85:1
Режим частоты кадров : Постоянный
Частота кадров : 23,976 (24000/1001) кадра/сек
Цветовое пространство : YUV
Субдискретизация насыщенности : 4:2:0
Битовая глубина : 8 бит
Тип развёртки : Прогрессивная
Бит/(Пиксели*Кадры) : 0.287
Размер потока : 11,5 Гбайт (88%)
Библиотека кодирования : x264 core 146 r2538 121396c
Настройки программы : cabac=1 / ref=4 / deblock=1:-1:-1 / analyse=0x3:0x113 / me=umh / subme=10 / psy=1 / psy_rd=1.00:0.15 / mixed_ref=1 / me_range=32 / chroma_me=1 / trellis=2 / 8x8dct=1 / cqm=0 / deadzone=21,11 / fast_pskip=1 / chroma_qp_offset=-3 / threads=6 / lookahead_threads=1 / sliced_threads=0 / nr=0 / decimate=1 / interlaced=0 / bluray_compat=0 / constrained_intra=0 / bframes=9 / b_pyramid=2 / b_adapt=2 / b_bias=0 / direct=1 / weightb=1 / open_gop=0 / weightp=2 / keyint=230 / keyint_min=23 / scenecut=40 / intra_refresh=0 / rc_lookahead=40 / rc=crf / mbtree=0 / crf=17.5 / qcomp=0.60 / qpmin=0 / qpmax=69 / qpstep=4 / vbv_maxrate=40000 / vbv_bufsize=50000 / crf_max=0.0 / nal_hrd=none / filler=0 / ip_ratio=1.40 / pb_ratio=1.30 / aq=1:1.00
Язык : English
Default : Да
Forced : Нет

Аудио #1
Идентификатор : 2
Формат : AC-3
Формат/Информация : Audio Coding 3
Профиль формата : Dolby Digital
Расширение режима : CM (complete main)
Параметр Endianness формата : Big
Идентификатор кодека : A_AC3
Продолжительность : 2 ч. 0 м.
Вид битрейта : Постоянный
Битрейт : 320 Кбит/сек
Каналы : 2 канала
Расположение каналов : Front: L R
Частота : 48,0 КГц
Частота кадров : 31,250 кадров/сек (1536 spf)
Метод сжатия : С потерями
Размер потока : 276 Мбайт (2%)
Заголовок : MVO (R5)
Язык : Russian
Default : Да
Forced : Нет

Аудио #2
Идентификатор : 3
Формат : DTS
Формат/Информация : Digital Theater Systems
Режим : 16
Параметр Endianness формата : Big
Идентификатор кодека : A_DTS
Продолжительность : 2 ч. 0 м.
Вид битрейта : Постоянный
Битрейт : 1509 Кбит/сек
Каналы : 6 каналов
Расположение каналов : Front: L C R, Side: L R, LFE
Частота : 48,0 КГц
Частота кадров : 93,750 кадра/сек (512 spf)
Битовая глубина : 24 бит
Метод сжатия : С потерями
Размер потока : 1,27 Гбайт (10%)
Заголовок : Original
Язык : English
Default : Нет
Forced : Нет

Текст #1
Идентификатор : 4
Формат : UTF-8
Идентификатор кодека : S_TEXT/UTF8
Идентификатор кодека/Информация : UTF-8 Plain Text
Продолжительность : 1 ч. 55 м.
Битрейт : 58 бит/сек
Count of elements : 975
Размер потока : 48,9 Кбайт (0%)
Заголовок : русский
Язык : Russian
Default : Нет
Forced : Нет

Текст #2
Идентификатор : 5
Формат : UTF-8
Идентификатор кодека : S_TEXT/UTF8
Идентификатор кодека/Информация : UTF-8 Plain Text
Продолжительность : 1 ч. 52 м.
Битрейт : 34 бит/сек
Count of elements : 892
Размер потока : 28,7 Кбайт (0%)
Заголовок : английский
Default : Нет
Forced : Нет
pb.wtf



Скачать Триумф через торрент http://s017.radikal.ru/i411/1603/ab/65a9f4dd530b.jpg Скачать фильм Триумф через торрент бесплантно в хорошем качестве Описание: Спортивная статистика тщательно регистрирует все рекорды, но лишь живая память способна сохранить драгоценные мгновения триумфа ... 10 10 4
Info! Золотая раздача, скачанное не засчитывается.
Торрент: Зарегистрирован [2016-03-11 08:36] · скачан: 58 раз
Статус: √ проверено
Размер: 13.06 GB
Как cкачать? Как скачать Триумф через торрент | qTorrent

% Раздел Тема Автор DL S | L
Фильмы [HD 720p, 1080p] (Хороший звук DUB, MVO) [ 4.76 GB ] Триумф / The Greatest Game Ever Played [2005 история BDRip 720p by msltel] MVO msltel Скачать
1 | 0
Фильмы 2001-2005 [ 6.72 GB ] Триумф / The Greatest Game Ever Played [2005 история BDRip 720p MVO + Original Eng + Sub Rus Eng] Assasinca Скачать
1 | 0
Фильмы 2001-2005 [ 2.18 GB ] Триумф / The Greatest Game Ever Played [2005 история BDRip MVO лицензия] lev1244v Скачать
1 | 0

28-11-2019 20:33  

Отключить всю рекламу на сайте

13-03-2016 02:41 Триумф Скачать торрент  

Без мелдония не интересно.pb.wtf



    Дорогой пользователь! Огромная просьба, поблагодарите релизера, оцените раздачу и оставьте свои комментарий, если Вы скачали Триумф через торрент бесплатно! Внесите свою лепту в развитие PiratBit!
    Комментировать посты могут только пользователи прошедшие не сложную регистрацию
    Показать сообщения:    

    Триумф через торрент
    Скачать бесплатно Триумф
    Триумф скачать торрент
    Триумф смотреть онлайн
    Cкачать фильм Триумф бесплатно
    Триумф скачать торрент в хорошем качестве
    Триумф смотреть онлайн бесплатно в хорошем качестве


    Вы не можете начинать темы
    Вы не можете отвечать на сообщения
    Вы не можете редактировать свои сообщения
    Вы не можете удалять свои сообщения
    Вы не можете голосовать в опросах
    Вы не можете прикреплять файлы к сообщениям
    Вы можете скачивать файлы