Ссылка на приватное зеркало нашего сайта всего за 1$. Внимание количество ограничено!!!

2 сезон

iTunes

1 сезон

1

iTunes

iTunes

iTunes

1 сезон

RePack

30

ИГРА 18+

pack

ВАЖНО

!!Акция!!

Alien_RageХит недели

RePack

MK11
pack

Забери бонус

RePack

jed

!!Акция!!

Alien_Rage

RePack

fifa19

RePack

Assassins Creed: Odyssey

RePack

NEED FOR SPEED™ PAYBACK

4 сезон

9 сезон

Бесстыжие 9 сезон

Все сериалы

все сериалы на PB.wtf

RePack

FAR CRY 5
  

Медведи Буни: Таинственная зима / Xiong Chumo Zhi Xueling Xiongfeng (Динг Лианг / Ding Liang, Фуюань Лью / Fuyuan Liu) [2015, Китай, мультфильм, комедия, WEB-DLRip, Дубляж] / Чистый звук pb.wtf

Медведи Буни: Таинственная зима через торрент pb.wtf

Размер: 1.37 GB | Добавлен: 4 года 7 мес. назад | Торрент скачан:272 раза
Скачать  

12-03-2016 01:40 Медведи Буни: Таинственная зима Скачать торрент  

Медведи Буни: Таинственная зима / Xiong Chumo Zhi Xueling Xiongfeng


  • Год выпуска: 2015
  • Страна: Китай
  • Жанр: мультфильм, комедия
  • Продолжительность: 01:35:47
  • Перевод: Дубляж - [Чистый звук]

  • Режиссер: Динг Лианг / Ding Liang, Фуюань Лью / Fuyuan Liu
  • В ролях:
    Jenny Ansell (Young Bramble, Child 2), Рик Джей Глен (Briar / Babu / Chester / Vick's Father, озвучка), Ethan Kiely (Young Briar, Child 1), Шиван Ламсден (Hoo Hoo / Weather Reporter / Mama Bear, озвучка), Yutian Meng, Che Devereux Scott Rinehart (Young Vick, Young Chester), Luc Alexander Mainland Rinehart (Young Vick, Young Chester), Пол «Макс» Райнхарт (Logger Vick / Tiki / Boss Lee, озвучка), Yaodong Sun, Джастин Джозеф Вилер (Bramble / Old Joe / Herbert Diggs / Maurice, озвучка), Bingjun Zhang


  • В лесу бушует невиданная снежная буря, когда на Сосновой горе неожиданно появляется загадочное существо. Вслед за ним прибывают несколько незнакомцев, которые устраивают настоящий переполох, пытаясь поймать сказочного монстра. Они уверены, что непонятный зверь собирается уничтожить Сосновую гору.
    Увлекательная сказка о знакомстве с новыми приятелями, проверке на прочность старых друзей, и объединении ради спасения родного дома.
  • Рейтинг:



  • Качество: WEB-DLRip
  • Формат: :AVI
  • Видео кодек: XviD
  • Аудио кодек: AC3
  • Видео: 720x304 (2.35:1), 1841 kbps, 24 fps, 0,351 bpp
  • Аудио: 2.0 / 48 kHz / 192 kbps / 16 bit
  • Релиз от: GEKADOL

    Код:

    General
    Complete name                            : G:\Medvedi.Byni.2015.D.WEBDLRip.avi
    Format                                   : AVI
    Format/Info                              : Audio Video Interleave
    File size                                : 1.37 GiB
    Duration                                 : 1h 35mn
    Overall bit rate                         : 2 043 Kbps
    Writing application                      : VirtualDubMod 1.5.10.3 | www.virtualdub-fr.org || (build 2550/release)
    Writing library                          : VirtualDubMod build 2550/release

    Video
    ID                                       : 0
    Format                                   : MPEG-4 Visual
    Format profile                           : Advanced Simple@L5
    Format settings, BVOP                    : 2
    Format settings, QPel                    : No
    Format settings, GMC                     : No warppoints
    Format settings, Matrix                  : Default (MPEG)
    Codec ID                                 : XVID
    Codec ID/Hint                            : XviD
    Duration                                 : 1h 35mn
    Bit rate                                 : 1 841 Kbps
    Width                                    : 720 pixels
    Height                                   : 304 pixels
    Display aspect ratio                     : 2.35:1
    Frame rate                               : 24.000 fps
    Color space                              : YUV
    Chroma subsampling                       : 4:2:0
    Bit depth                                : 8 bits
    Scan type                                : Progressive
    Compression mode                         : Lossy
    Bits/(Pixel*Frame)                       : 0.351
    Stream size                              : 1.23 GiB (90%)
    Writing library                          : XviD 1.2.1 (UTC 2008-12-04)

    Audio
    ID                                       : 1
    Format                                   : AC-3
    Format/Info                              : Audio Coding 3
    Mode extension                           : CM (complete main)
    Codec ID                                 : 2000
    Duration                                 : 1h 35mn
    Bit rate mode                            : Constant
    Bit rate                                 : 192 Kbps
    Channel(s)                               : 2 channels
    Channel positions                        : Front: L R
    Sampling rate                            : 48.0 KHz
    Bit depth                                : 16 bits
    Compression mode                         : Lossy
    Stream size                              : 132 MiB (9%)
    Alignment                                : Split accross interleaves
    Interleave, duration                     : 42 ms (1.00 video frame)
    Interleave, preload duration             : 500 ms




    Скриншоты:



    pb.wtf



  • Скачать Медведи Буни: Таинственная зима через торрент http://i74.fastpic.ru/big/2016/0312/73/cac9df84b542f4c83db6821d91460573.jpg Скачать фильм Медведи Буни: Таинственная зима через торрент бесплантно в хорошем качестве qw.png В лесу бушует невиданная снежная буря, когда на Сосновой горе неожиданно появляется загадочное существо. Вслед за ним прибывают ... 8.5 10 6
    Торрент: Зарегистрирован [2016-03-12 01:40] · скачан: 272 раз
    Статус: T временная
    Размер: 1.37 GB
    Как cкачать? Как скачать Медведи Буни: Таинственная зима через торрент | qTorrent

    % Раздел Тема Автор DL S | L
    T Зарубежные Мультфильмы (WEB-DL 720p, 1080p) [ 2.8 GB ] Медведи Буни: Таинственная зима / Xiong Chumo Zhi Xueling Xiongfeng [2015 Китай мультфильм WEB-DL 1080p ] / Чистый звук GEKADOL Скачать
    1 | 0

    28-11-2019 20:33  

    Отключить всю рекламу на сайте

      Дорогой пользователь! Огромная просьба, поблагодарите релизера, оцените раздачу и оставьте свои комментарий, если Вы скачали Медведи Буни: Таинственная зима через торрент бесплатно! Внесите свою лепту в развитие PiratBit!
      Комментировать посты могут только пользователи прошедшие не сложную регистрацию
      Показать сообщения:    

      Медведи Буни: Таинственная зима через торрент
      Скачать бесплатно Медведи Буни: Таинственная зима
      Медведи Буни: Таинственная зима скачать торрент
      Медведи Буни: Таинственная зима смотреть онлайн
      Cкачать фильм Медведи Буни: Таинственная зима бесплатно
      Медведи Буни: Таинственная зима скачать торрент в хорошем качестве
      Медведи Буни: Таинственная зима смотреть онлайн бесплатно в хорошем качестве


      Вы не можете начинать темы
      Вы не можете отвечать на сообщения
      Вы не можете редактировать свои сообщения
      Вы не можете удалять свои сообщения
      Вы не можете голосовать в опросах
      Вы не можете прикреплять файлы к сообщениям
      Вы можете скачивать файлы