2 сезон

iTunes

1 сезон

1

iTunes

iTunes

iTunes

1 сезон

RePack

30

ИГРА 18+

pack

ВАЖНО

!!Акция!!

Alien_RageХит недели

RePack

MK11
pack

Забери бонус

RePack

jed

!!Акция!!

Alien_Rage

RePack

fifa19

RePack

Assassins Creed: Odyssey

RePack

NEED FOR SPEED™ PAYBACK

4 сезон

9 сезон

Бесстыжие 9 сезон

Все сериалы

все сериалы на PB.wtf

RePack

FAR CRY 5
  

Гравитация / Gravity (Альфонсо Куарон ) [2013, фантастика, триллер, BDRip-AVC, 60fps, Dub, AVO, VO, Original] от R.G. HD-Films pb.wtf

Гравитация через торрент pb.wtf

Качают: 1 [ 0 KB/s ]
Размер: 5.14 GB | Добавлен: 4 года 7 мес. назад | Торрент скачан:140 раз
Скачать  

12-03-2016 13:30 Гравитация Скачать торрент  

Гравитация / Gravity

Год выпуска: 2013
Страна: Великобритания, США
Жанр: фантастика, триллер
Продолжительность: 01:30:58
Перевод: Dub, AVO, VO, Original
Субтитры: русские (Форсированные), русские (Полные), украинские (Полные), английские (Полные), английские (Полные SDH), английские (Полные SDH-COLORED)
Режиссер: Альфонсо Куарон
В ролях: Сандра Буллок (Ryan Stone), Джордж Клуни (Matt Kowalski), Эд Харрис (Mission Control, озвучка), Орто Игнатиуссен (Aningaaq, озвучка), Фалдут Шарма (Shariff, озвучка), Эми Уоррен (Explorer Captain, озвучка), Башер Сэвэдж (Russian Space Station Captain, озвучка), Адам Козенс (Adam, в титрах не указан)
Описание:
Доктор Райан Стоун, блестящий специалист в области медицинского инжиниринга, отправляется в свою первую космическую миссию под командованием ветерана астронавтики Мэтта Ковальски, для которого этот полет - последний перед отставкой. Но во время, казалось бы, рутинной работы за бортом случается катастрофа.
Шаттл уничтожен, а Стоун и Ковальски остаются совершенно одни; они находятся в связке друг с другом, и все, что они могут, - это двигаться по орбите в абсолютно черном пространстве без всякой связи с Землей и какой-либо надежды на спасение.
Рейтинг:

MPAA: PG-13 - Детям до 13 лет просмотр не желателен
Качество: BDRip-AVC 60fps
Формат: MKV
Видео: AVC, 1024x424 (2.40:1), 4000 kbps, 60 fps, 0,154 bpp
Аудио 1: русский / AC3 / 5.1 / 48 kHz / 448 kbps / 16 bit
Аудио 2: русский / AC3 / 5.1 / 48 kHz / 640 kbps / 16 bit |AVO Живов (Отдельно в папке)|
Аудио 3: русский / AC3 / 5.1 / 48 kHz / 640 kbps / 16 bit |AVO Горчаков (Отдельно в папке)|
Аудио 4: русский / AC3 / 5.1 / 48 kHz / 640 kbps / 16 bit |AVO Немахов (Отдельно в папке)|
Аудио 5: русский / AC3 / 5.1 / 48 kHz / 640 kbps / 16 bit |VO Есарев (Отдельно в папке)|
Аудио 6: украинский / AC3 / 5.1 / 48 kHz / 448 kbps / 16 bit |Дубляж (Отдельно в папке)|
Аудио 7: английский / AC3 / 5.1 / 48 kHz / 640 kbps / 16 bit |Оригинал (Отдельно в папке)|
Навигация по главам: есть

General
Unique ID : 223547937018594504619573341000225858982 (0xA82DC43F4EF6A74E93DD33E8496D25A6)
Complete name : D:\Гравитация BDRip-AVC 60fps R.G. HD-Films\Гравитация BDRip-AVC 60fps R.G. HD-Films.mkv
Format : Matroska
Format version : Version 4 / Version 2
File size : 2.83 GiB
Duration : 1h 30mn
Overall bit rate : 4 446 Kbps
Movie name : Tiberiumsun69
Encoded date : UTC 2016-03-10 21:32:20
Writing application : mkvmerge v8.3.0 ('Over the Horizon') 64bit
Writing library : libebml v1.3.1 + libmatroska v1.4.2
DURATION : 01:29:50.093000000
NUMBER_OF_FRAMES : 1000
NUMBER_OF_BYTES : 43643
_STATISTICS_WRITING_APP : mkvmerge v8.3.0 ('Over the Horizon') 64bit
_STATISTICS_WRITING_DATE_UTC : 2016-03-10 21:32:20
_STATISTICS_TAGS : BPS DURATION NUMBER_OF_FRAMES NUMBER_OF_BYTES
Attachment : Yes

Video
ID : 1
Format : AVC
Format/Info : Advanced Video Codec
Format profile : High@L4.1
Format settings, CABAC : Yes
Format settings, ReFrames : 4 frames
Codec ID : V_MPEG4/ISO/AVC
Duration : 1h 30mn
Bit rate : 4 000 Kbps
Width : 1 024 pixels
Height : 424 pixels
Display aspect ratio : 2.40:1
Frame rate : 60.000 fps
Color space : YUV
Chroma subsampling : 4:2:0
Bit depth : 8 bits
Scan type : Progressive
Bits/(Pixel*Frame) : 0.154
Stream size : 2.48 GiB (88%)
Title : Tiberiumsun69
Writing library : x264 core 146 r2538 121396c
Encoding settings : cabac=1 / ref=3 / deblock=1:0:0 / analyse=0x3:0x113 / me=umh / subme=9 / psy=1 / psy_rd=1.00:0.10 / mixed_ref=1 / me_range=32 / chroma_me=1 / trellis=2 / 8x8dct=1 / cqm=0 / deadzone=21,11 / fast_pskip=0 / chroma_qp_offset=-3 / threads=12 / lookahead_threads=3 / sliced_threads=0 / nr=0 / decimate=1 / interlaced=0 / bluray_compat=0 / constrained_intra=0 / bframes=16 / b_pyramid=2 / b_adapt=2 / b_bias=0 / direct=3 / weightb=1 / open_gop=0 / weightp=2 / keyint=250 / keyint_min=25 / scenecut=40 / intra_refresh=0 / rc_lookahead=40 / rc=2pass / mbtree=0 / bitrate=4000 / ratetol=1.0 / qcomp=0.60 / qpmin=0 / qpmax=69 / qpstep=4 / cplxblur=20.0 / qblur=0.5 / vbv_maxrate=14000 / vbv_bufsize=14000 / nal_hrd=none / filler=0 / ip_ratio=1.40 / pb_ratio=1.30 / aq=1:1.00
Language : English
Default : Yes
Forced : No
DURATION : 01:30:58.828000000
NUMBER_OF_FRAMES : 327529
NUMBER_OF_BYTES : 2725000634
_STATISTICS_WRITING_APP : mkvmerge v8.3.0 ('Over the Horizon') 64bit
_STATISTICS_WRITING_DATE_UTC : 2016-03-10 21:32:20
_STATISTICS_TAGS : BPS DURATION NUMBER_OF_FRAMES NUMBER_OF_BYTES

Audio
ID : 2
Format : AC-3
Format/Info : Audio Coding 3
Mode extension : CM (complete main)
Codec ID : A_AC3
Duration : 1h 30mn
Bit rate mode : Constant
Bit rate : 448 Kbps
Channel(s) : 6 channels
Channel positions : Front: L C R, Side: L R, LFE
Sampling rate : 48.0 KHz
Bit depth : 16 bits
Compression mode : Lossy
Stream size : 292 MiB (10%)
Title : Дубляж
Language : Russian
Default : Yes
Forced : No

Text #1
ID : 3
Format : UTF-8
Codec ID : S_TEXT/UTF8
Codec ID/Info : UTF-8 Plain Text
Title : Форсированные
Language : Russian
Default : Yes
Forced : No

Text #2
ID : 4
Format : UTF-8
Codec ID : S_TEXT/UTF8
Codec ID/Info : UTF-8 Plain Text
Title : Полные
Language : Russian
Default : No
Forced : No

Text #3
ID : 5
Format : UTF-8
Codec ID : S_TEXT/UTF8
Codec ID/Info : UTF-8 Plain Text
Title : Полные
Language : Ukrainian
Default : No
Forced : No

Text #4
ID : 6
Format : UTF-8
Codec ID : S_TEXT/UTF8
Codec ID/Info : UTF-8 Plain Text
Title : Полные
Language : English
Default : No
Forced : No

Text #5
ID : 7
Format : UTF-8
Codec ID : S_TEXT/UTF8
Codec ID/Info : UTF-8 Plain Text
Title : Полные SDH
Language : English
Default : No
Forced : No

Text #6
ID : 8
Format : UTF-8
Codec ID : S_TEXT/UTF8
Codec ID/Info : UTF-8 Plain Text
Title : Полные SDH-COLORED
Language : English
Default : No
Forced : No

Menu
00:00:00.000 : en:Chapter 1
00:13:08.830 : en:Chapter 2
00:21:33.542 : en:Chapter 3
00:29:12.668 : en:Chapter 4
00:39:59.856 : en:Chapter 5
00:48:49.051 : en:Chapter 6
00:57:00.667 : en:Chapter 7
01:08:08.418 : en:Chapter 8
01:15:27.148 : en:Chapter 9
01:23:50.567 : en:Chapter 10
Просьба к переливающим на другие сайты, в оформлении указывайте пожалуйста авторство группы Авторская группа в ВК
pb.wtf



Скачать Гравитация через торрент http://i73.fastpic.ru/big/2016/0312/45/59d3d57b3157a5ead852ded963c54945.png Скачать фильм Гравитация через торрент бесплантно в хорошем качестве Описание: Доктор Райан Стоун, блестящий специалист в области медицинского инжиниринга, отправляется в свою первую космическую миссию под ... 10 10 3
Info! Золотая раздача, скачанное не засчитывается.
Торрент: Зарегистрирован [2016-03-12 13:30] · скачан: 140 раз
Статус: √ проверено
Размер: 5.14 GB
Как cкачать? Как скачать Гравитация через торрент | qTorrent

% Раздел Тема Автор DL S | L
Фильмы (HD 720p, 1080p) (48-60 fps) [ 14.07 GB ] Гравитация / Gravity [2013 BDRip 1080p 60fps Dub AVO VO Original] от R.G. HD-Films Tiberiumsun69 Скачать
6 | 0
Фильмы (HD 720p, 1080p) (48-60 fps) [ 6.4 GB ] Гравитация / Gravity [2013 BDRip 720p 60fps Dub AVO VO Original] от R.G. HD-Films Tiberiumsun69 Скачать
2 | 0


Последний раз редактировалось: Tiberiumsun69 (2018-02-09 08:37), всего редактировалось 1 раз

28-11-2019 20:33  

Отключить всю рекламу на сайте

12-03-2016 13:30 Гравитация Скачать торрент  

Всем приятного просмотра.)pb.wtf



    Дорогой пользователь! Огромная просьба, поблагодарите релизера, оцените раздачу и оставьте свои комментарий, если Вы скачали Гравитация через торрент бесплатно! Внесите свою лепту в развитие PiratBit!
    Комментировать посты могут только пользователи прошедшие не сложную регистрацию
    Показать сообщения:    

    Гравитация через торрент
    Скачать бесплатно Гравитация
    Гравитация скачать торрент
    Гравитация смотреть онлайн
    Cкачать фильм Гравитация бесплатно
    Гравитация скачать торрент в хорошем качестве
    Гравитация смотреть онлайн бесплатно в хорошем качестве


    Вы не можете начинать темы
    Вы не можете отвечать на сообщения
    Вы не можете редактировать свои сообщения
    Вы не можете удалять свои сообщения
    Вы не можете голосовать в опросах
    Вы не можете прикреплять файлы к сообщениям
    Вы можете скачивать файлы