новый адрес
Мега распродажа FORZA HORIZON 4 ULTIMATE+ВСЕ DLC+ОНЛАЙН всего за 499р. 349 руб. (супер цена). Внимание количество ограничено!!!

iTunes

1+1

iTunes

мы

iTunes

1

iTunes

Чернобыль

iTunes

Ральф против интернета

Лицензия

ПШазам

Лицензия

Игра престолов

Лицензия

30
pack

ВАЖНО

!!Акция!!

Alien_RageХит недели

RePack

Resident Evil 21

ИГРА 18+

pack

RePack

Metro:Exodus

!!Акция!!

Alien_Rage

RePack

fifa19

RePack

Assassins Creed: Odyssey

RePack

NEED FOR SPEED™ PAYBACK

3 сезон

9 сезон

Бесстыжие 9 сезон

Все сериалы

все сериалы на PB.wtf

RePack

FAR CRY 5
Ребята, катастрофически не хватает 1900р. для оплаты серверов за Октябрь (всвязи с блокировками трафик упал в 3 раза), 1-2р., выручайте.
  

Любовь Яровая (Ян Фрид) [1953, СССР, драма, DVDRip от AVP Studio] pb.wtf

Любовь Яровая через торрент pb.wtf

Размер: 2.18 GB | Добавлен: 3 года 8 мес. назад | Торрент скачан:20 раз
Скачать  

13-03-2016 07:46 Любовь Яровая Скачать торрент  

Любовь Яровая
Страна: СССР
Производство: Ленфильм

Жанр: драма
Год выпуска: 1953
Продолжительность: 02:25:48

Перевод: Не требуется
Cубтитры: нет
Оригинальная аудиодорожка: русский

Режиссер: Ян Фрид

В ролях:
Зинаида Карпова, Александр Мазаев, Валентина Кибардина, Виталий Полицеймако, Игорь Горбачёв, Ф. Зинковец, Александр Чепурнов, Георгий Семёнов, Елена Грановская, Александр Лариков, Сергей Карнович-Валуа, Ефим Копелян, Евгений Иванов, Вера Романова, Е. Никитина (II), Борис Рыжухин, Виктор Чайников, Василий Максимов...
Полный список актёров

Описание:
По одноименной пьесе Константина Тренева.
Фильм-спектакль Ленинградского БДТ имени М.Горького, режиссер спектакля - Иван Ефремов.
Годы гражданской войны. Чтобы не пустить в город наступающих белых, председатель ревкома Роман Кошкин (Виталий Полицеймако) приказывает взорвать Жегловский мост. Белый разведчик Михаил Яровой, выдающий себя за комиссара Вихря, срывает это задание. Подрывники арестованы. Кошкин и члены ревкома уходят в подполье. Поручик Яровой случайно встречает жену-учительницу, сотрудничающую с Советской властью. Понимая, что муж стал белогвардейцем, Любовь Яровая порывает с ним.
Фронт прорван красными, подпольщики в городе готовят вооруженное выступление. Яровой обманом узнаёт у жены о собрании подпольщиков. Возглавляемый им казачий отряд захватывает комитетчиков и самого Романа Кошкина. Любовь Яровая приходит в штаб белых с намерением убить мужа, но Яровой арестовывает её. Лихой матрос Швандя (Игорь Горбачёв), помощник Кошкина, переодевшись белым офицером,освобождает Яровую, и они вместе с восставшими рабочими направляются к тюрьме, где томятся попольщики и жегловцы. Тюрьма взята штурмом, в город входят красные войска...

Источник: DVD9 R5
Качество видео: DVDRip
Формат видео: AVI

Видео: 688x512 (4:3), 25 fps, XviD ~ 1939 kbps avg, 0.220 bit/pixel
Аудио: 48 kHz, Dolby Digital AC3 2.0, 192 kbps

Раздача от:
Общее
Полное имя : Lyubov.Yarovaya.1953.DVDRip_[New-team]_by_AVP_Studio.avi
Формат : AVI
Формат/Информация : Audio Video Interleave
Профиль формата : OpenDML
Размер файла : 2,18 Гбайт
Продолжительность : 2 ч. 25 м.
Общий поток : 2143 Кбит/сек
Программа кодирования : VirtualDubMod 1.5.10.3 | www.virtualdub-fr.org || (build 2550/release)
Библиотека кодирования : VirtualDubMod build 2550/release

Видео
Идентификатор : 0
Формат : MPEG-4 Visual
Профиль формата : Advanced Simple@L5
Параметр BVOP формата : 1
Параметр QPel формата : Нет
Параметр GMC формата : Без точки перехода
Параметр матрицы формата : Выборочная
Идентификатор кодека : XVID
Идентификатор кодека/Подсказка : XviD
Продолжительность : 2 ч. 25 м.
Битрейт : 1939 Кбит/сек
Ширина : 688 пикселей
Высота : 512 пикселей
Соотношение сторон : 4:3
Частота кадров : 25,000 кадров/сек
Цветовое пространство : YUV
Субдискретизация насыщенности : 4:2:0
Битовая глубина : 8 бит
Тип развёртки : Прогрессивная
Метод сжатия : С потерями
Бит/(Пиксели*Кадры) : 0.220
Размер потока : 1,97 Гбайт (90%)
Библиотека кодирования : XviD 1.2.1 (UTC 2008-12-04)

Аудио
Идентификатор : 1
Формат : AC-3
Формат/Информация : Audio Coding 3
Расширение режима : CM (complete main)
Параметр Endianness формата : Big
Идентификатор кодека : 2000
Продолжительность : 2 ч. 25 м.
Вид битрейта : Постоянный
Битрейт : 192 Кбит/сек
Каналы : 2 канала
Расположение каналов : Front: L R
Частота : 48,0 КГц
Частота кадров : 31,250 кадров/сек (1536 spf)
Метод сжатия : С потерями
Размер потока : 200 Мбайт (9%)
Выравнивание : Разделение по промежуткам
Продолжительность промежутка : 40 мс. (1,00 видеокадр)
Время предзагрузки промежутка : 500 мс
pb.wtf



Скачать Любовь Яровая через торрент http://s020.radikal.ru/i711/1603/86/b3b0f1f8b68a.png Скачать фильм Любовь Яровая через торрент бесплантно в хорошем качестве Описание:По одноименной пьесе Константина Тренева.Фильм-спектакль Ленинградского БДТ имени М.Горького, режиссер спектакля - Иван ... 9 10 1
Info! Золотая раздача, скачанное не засчитывается.
Торрент: Зарегистрирован [2016-03-13 07:46] · скачан: 20 раз
Статус: √ проверено
Размер: 2.18 GB
Как cкачать? Как скачать Любовь Яровая через торрент | qTorrent

% Раздел Тема Автор DL S | L
Кино СССР [ 2.18 GB ] Любовь Яровая [1953 СССР DVDRip-AVC от AVP Studio] AVP Studio Скачать
1 | 0
Кино СССР [ 1.09 GB ] Любовь Яровая [1953 СССР DVDRip от AVP Studio] AVP Studio Скачать
1 | 0


>> Регистрируемся здесь <<






Отзывы и комментарии о схеме читаем и пишем здесь: ---> Отзывы и комментарии о схеме

Новые благодарочки в телеграм довольных пользователей:
скриншот   скриншот   скриншот   скриншот   скриншот
    Дорогой пользователь! Огромная просьба, поблагодарите релизера, оцените раздачу и оставьте свои комментарий, если Вы скачали Любовь Яровая через торрент бесплатно! Внесите свою лепту в развитие PiratBit!
    Комментировать посты могут только пользователи прошедшие не сложную регистрацию
    Показать сообщения:    

    Любовь Яровая через торрент
    Скачать бесплатно Любовь Яровая
    Любовь Яровая скачать торрент
    Любовь Яровая смотреть онлайн
    Cкачать фильм Любовь Яровая бесплатно
    Любовь Яровая скачать торрент в хорошем качестве
    Любовь Яровая смотреть онлайн бесплатно в хорошем качестве


    Вы не можете начинать темы
    Вы не можете отвечать на сообщения
    Вы не можете редактировать свои сообщения
    Вы не можете удалять свои сообщения
    Вы не можете голосовать в опросах
    Вы не можете прикреплять файлы к сообщениям
    Вы можете скачивать файлы