2 сезон

iTunes

1 сезон

1

iTunes

iTunes

iTunes

1 сезон

RePack

30

ИГРА 18+

pack

ВАЖНО

!!Акция!!

Alien_RageХит недели

RePack

MK11
pack

Забери бонус

RePack

jed

!!Акция!!

Alien_Rage

RePack

fifa19

RePack

Assassins Creed: Odyssey

RePack

NEED FOR SPEED™ PAYBACK

4 сезон

9 сезон

Бесстыжие 9 сезон

Все сериалы

все сериалы на PB.wtf

RePack

FAR CRY 5
  

Стукач / The Hit (Стивен Фрирз) [1984, триллер, драма, криминал, BDRip 720p by msltel] MVO, AVO pb.wtf

Стукач через торрент pb.wtf

Размер: 5.05 GB | Добавлен: 4 года 7 мес. назад | Торрент скачан:68 раз
Скачать  

13-03-2016 07:47 Стукач Скачать торрент  

Название: Стукач
Оригинальное название: The Hit
Год выпуска: 1984
Страна: Великобритания
Жанр: триллер, драма, криминал
Продолжительность: 01:37:50
Перевод: профессиональный многоголосый, авторский

Режиссёр: Стивен Фрирз

В ролях: Джон Хёрт, Теренс Стэмп, Тим Рот, Лаура дель Сол, Билл Хантер, Фернандо Рей, Фредди Стюарт, Ральф Браун, А.Дж. Кларк, Ленни Питерс

Описание: Гангстеру Уилли Паркеру надоела преступная жизнь. Чтобы уйти на покой и не иметь претензий со стороны полиции, он решает сдать своих бывших компаньонов. Дав свидетельские показания и отправив своих подельников за решетку, Уилли скрывается в Испании. Проходит десять лет, но дружки Паркера не забывают старой обиды. Киллер по имени Брэддок и его помощник Майрон похищают Уилли. Теперь им предстоит доставить его в Париж, где мафия собирается устроить над ним собственный суд. Но путь до Парижа не близкий, а на хвосте похитителей уже висит полиция...



Качество: BDRip 720p Сравнение с исходником
Формат: MKV
Видео: MPEG-4 AVC, 6049 Кбит/с, 1280x690, 24 кадр/с
Аудио 1: русский, AC3, 448 kbps, 6 ch, 48 kHz [профессиональный многоголосый, Cinema Prestige]
Аудио 2: русский, AC3, 448 kbps, 6 ch, 48 kHz [авторский, Пётр Карцев]
Аудио 3: английский, AC3, 448 kbps, 6 ch, 48 kHz [оригинал]
Субтитры 1: русские
Субтитры 2: английские
Общее
Уникальный идентификатор : 182010722409736554192477195103710478396 (0x88EDFD73D758F6DA815C1A467E78003C)
Полное имя : D:\Video\Стукач.1984.BDRip.720p.mkv
Формат : Matroska
Версия формата : Version 4 / Version 2
Размер файла : 5,05 Гбайт
Продолжительность : 1 ч. 37 м.
Общий поток : 7395 Кбит/сек
Дата кодирования : UTC 2016-03-13 03:54:01
Программа кодирования : mkvmerge v8.2.0 ('World of Adventure') 64bit
Библиотека кодирования : libebml v1.3.1 + libmatroska v1.4.2

Видео
Идентификатор : 1
Формат : AVC
Формат/Информация : Advanced Video Codec
Профиль формата : High@L4.1
Параметр CABAC формата : Да
Параметр ReFrames формата : 9 кадров
Идентификатор кодека : V_MPEG4/ISO/AVC
Продолжительность : 1 ч. 37 м.
Битрейт : 6049 Кбит/сек
Ширина : 1280 пикселей
Высота : 690 пикселей
Соотношение сторон : 1,85:1
Режим частоты кадров : Постоянный
Частота кадров : 24,000 кадра/сек
Цветовое пространство : YUV
Субдискретизация насыщенности : 4:2:0
Битовая глубина : 8 бит
Тип развёртки : Прогрессивная
Бит/(Пиксели*Кадры) : 0.285
Размер потока : 4,13 Гбайт (82%)
Библиотека кодирования : x264 core 146 r2538 121396c
Настройки программы : cabac=1 / ref=9 / deblock=1:-3:-3 / analyse=0x3:0x113 / me=umh / subme=10 / psy=1 / psy_rd=1.00:0.15 / mixed_ref=1 / me_range=32 / chroma_me=1 / trellis=2 / 8x8dct=1 / cqm=0 / deadzone=21,11 / fast_pskip=1 / chroma_qp_offset=-3 / threads=6 / lookahead_threads=1 / sliced_threads=0 / nr=0 / decimate=1 / interlaced=0 / bluray_compat=0 / constrained_intra=0 / bframes=8 / b_pyramid=2 / b_adapt=2 / b_bias=0 / direct=1 / weightb=1 / open_gop=0 / weightp=2 / keyint=230 / keyint_min=23 / scenecut=40 / intra_refresh=0 / rc_lookahead=40 / rc=crf / mbtree=0 / crf=16.6 / qcomp=0.60 / qpmin=0 / qpmax=69 / qpstep=4 / vbv_maxrate=40000 / vbv_bufsize=50000 / crf_max=0.0 / nal_hrd=none / filler=0 / ip_ratio=1.40 / pb_ratio=1.30 / aq=1:1.00
Язык : English
Default : Да
Forced : Нет

Аудио #1
Идентификатор : 2
Формат : AC-3
Формат/Информация : Audio Coding 3
Расширение режима : CM (complete main)
Параметр Endianness формата : Big
Идентификатор кодека : A_AC3
Продолжительность : 1 ч. 37 м.
Вид битрейта : Постоянный
Битрейт : 448 Кбит/сек
Каналы : 6 каналов
Расположение каналов : Front: L C R, Side: L R, LFE
Частота : 48,0 КГц
Частота кадров : 31,250 кадров/сек (1536 spf)
Метод сжатия : С потерями
Размер потока : 314 Мбайт (6%)
Заголовок : MVO (Cinema Prestige)
Язык : Russian
Default : Да
Forced : Нет

Аудио #2
Идентификатор : 3
Формат : AC-3
Формат/Информация : Audio Coding 3
Расширение режима : CM (complete main)
Параметр Endianness формата : Big
Идентификатор кодека : A_AC3
Продолжительность : 1 ч. 37 м.
Вид битрейта : Постоянный
Битрейт : 448 Кбит/сек
Каналы : 6 каналов
Расположение каналов : Front: L C R, Side: L R, LFE
Частота : 48,0 КГц
Частота кадров : 31,250 кадров/сек (1536 spf)
Метод сжатия : С потерями
Размер потока : 314 Мбайт (6%)
Заголовок : AVO (Пётр Карцев)
Язык : Russian
Default : Нет
Forced : Нет

Аудио #3
Идентификатор : 4
Формат : AC-3
Формат/Информация : Audio Coding 3
Расширение режима : CM (complete main)
Параметр Endianness формата : Big
Идентификатор кодека : A_AC3
Продолжительность : 1 ч. 37 м.
Вид битрейта : Постоянный
Битрейт : 448 Кбит/сек
Каналы : 6 каналов
Расположение каналов : Front: L C R, Side: L R, LFE
Частота : 48,0 КГц
Частота кадров : 31,250 кадров/сек (1536 spf)
Метод сжатия : С потерями
Размер потока : 314 Мбайт (6%)
Заголовок : Original
Язык : English
Default : Нет
Forced : Нет

Текст #1
Идентификатор : 5
Формат : UTF-8
Идентификатор кодека : S_TEXT/UTF8
Идентификатор кодека/Информация : UTF-8 Plain Text
Продолжительность : 1 ч. 33 м.
Битрейт : 39 бит/сек
Count of elements : 699
Размер потока : 26,9 Кбайт (0%)
Заголовок : русский
Язык : Russian
Default : Нет
Forced : Нет

Текст #2
Идентификатор : 6
Формат : UTF-8
Идентификатор кодека : S_TEXT/UTF8
Идентификатор кодека/Информация : UTF-8 Plain Text
Продолжительность : 1 ч. 31 м.
Битрейт : 36 бит/сек
Count of elements : 705
Размер потока : 24,3 Кбайт (0%)
Заголовок : английский
Default : Нет
Forced : Нет
pb.wtf



Скачать Стукач через торрент http://s017.radikal.ru/i440/1603/f0/b47e71c1da4e.jpg Скачать фильм Стукач через торрент бесплантно в хорошем качестве Описание: Гангстеру Уилли Паркеру надоела преступная жизнь. Чтобы уйти на покой и не иметь претензий со стороны полиции, он решает сдать ... 7.7 10 3
Info! Золотая раздача, скачанное не засчитывается.
Торрент: Зарегистрирован [2016-03-13 07:47] · скачан: 68 раз
Статус: √ проверено
Размер: 5.05 GB
Как cкачать? Как скачать Стукач через торрент | qTorrent

% Раздел Тема Автор DL S | L
Фильмы [HD 720p, 1080p] (Хороший звук DUB, MVO) [ 13.54 GB ] Стукач / The Hit [1984 BDRip 1080p by msltel] MVO AVO msltel Скачать
1 | 0

28-11-2019 20:33  

Отключить всю рекламу на сайте

    Дорогой пользователь! Огромная просьба, поблагодарите релизера, оцените раздачу и оставьте свои комментарий, если Вы скачали Стукач через торрент бесплатно! Внесите свою лепту в развитие PiratBit!
    Комментировать посты могут только пользователи прошедшие не сложную регистрацию
    Показать сообщения:    

    Стукач через торрент
    Скачать бесплатно Стукач
    Стукач скачать торрент
    Стукач смотреть онлайн
    Cкачать фильм Стукач бесплатно
    Стукач скачать торрент в хорошем качестве
    Стукач смотреть онлайн бесплатно в хорошем качестве


    Вы не можете начинать темы
    Вы не можете отвечать на сообщения
    Вы не можете редактировать свои сообщения
    Вы не можете удалять свои сообщения
    Вы не можете голосовать в опросах
    Вы не можете прикреплять файлы к сообщениям
    Вы можете скачивать файлы