Доктор Стрэндж

Лицензия

Добыча

Дубляж

Дом дракона

1 сезон

Тор

Дубляж

В эфире

Дубляж

Там, где раки поют

MVO

Властелин колец

1 сезон

Deluxe

pack

Рекомендуем

30

Пиратка

ВАЖНО

ВАЖНО

Ghostwire

Пиратка

jed

RePack

nioh2

RePack

RDR2

RePack

NEED FOR SPEED™ PAYBACK

RePack

скачать торрент

Кинопоиск HD

Острые козырьки 6 сезон

6 сезон

FAR CRY 6

RePack

скачать торрент

Лицензия

скачать торрент

MVO

1

1 сезон

скачать торрент

1 сезон

скачать торрент

Лицензия

  

Страна ОЗ (Василий Сигарев) [2015, комедия, DVD9] R5

Смотреть онлайн | Скачать   

14-03-2016 10:02 Страна ОЗ Скачать торрент  


Страна ОЗ
«Скоро Новый год! Пора выбрасывать ёлки!»
Страна: Россия
Студия: Белое Зеркало
Жанр: комедия
Год выпуска: 2015
Мировая премьера: 8 ноября 2015
Российская премьера: 3 декабря 2015
Дата выхода DVD: 08 февраля 2016
Продолжительность: 01:35:49
Перевод: Оригинал [Лицензия]
Cубтитры: нет
Оригинальная аудиодорожка: русский
Режиссер: Василий Сигарев
В ролях: Яна Троянова, Гоша Куценко, Андрей Ильенков, Александр Баширов, Евгений Цыганов, Владимир Симонов, Инна Чурикова, Светлана Камынина, Юлия Снигирь, Алиса Хазанова
Описание: Новый год в России — стихия неуправляемая и беспощадная. Именно в это волшебное время непостижимый колорит русской души проявляет себя во всей красе. Пока жители Екатеринбурга готовятся к главному национальному празднику и шинкуют оливье, Ленка Шабадинова спешит до боя курантов принять смену в киоске на улице Торфорезов. Но она даже не подозревает, что новогодняя ночь приготовила для нее свой безумный сценарий.
Доп. информация: Содержит 2 версии фильма Кинотеатральная (цензурированная, маты запиканы) и режиссёрская (без цензуры, содержит нецензурную брань)

Качество: DVD9 R5
Формат: DVD-Video
Видео кодек: MPEG2
Аудио кодек: AC3
Видео: PAL 16:9 (720x576(0.531)) MPEG Video, 25,000 кадр/сек, 5506 Кбит/сек
Аудио: Russian (Dolby AC3, 6 ch) 448 Кбит/сек, 48,0 КГц



Title: F
Size: 7.71 Gb ( 8 083 248 KBytes ) - DVD-9
Enabled regions: 1, 2, 3, 4, 5, 6, 7, 8

VTS_01 :
Play Length: 00:00:15
Video: PAL 4:3 (720x576) VBR
Audio:
Not specified (Dolby AC3, 2 ch)

VTS_02 :
Play Length: 00:00:16
Video: PAL 16:9 (720x576) VBR, Auto Pan&Scan
Audio:
Not specified (Dolby AC3, 2 ch)

VTS_03 :
Play Length: 01:35:49
Video: PAL 16:9 (720x576) VBR, Auto Pan&Scan
Audio:
Russian (Dolby AC3, 6 ch)

VTS_04 :
Play Length: 01:35:49
Video: PAL 16:9 (720x576) VBR, Auto Pan&Scan
Audio:
Russian (Dolby AC3, 6 ch)

Menu Video:
PAL 16:9 (720x576) VBR
Auto Letterboxed
Menu Subtitles:
Not specified
Menu English Language Unit :
Root Menu
Chapter (PTT) Menu
Общее
Полное имя : F:\Новинки 2016\Strana.O3.2015.DVD9\VIDEO_TS\VTS_03_1.VOB
Формат : MPEG-PS
Размер файла : 1024 Мбайт
Продолжительность : 23 м.
Режим общего битрейта : Переменный
Общий поток : 6075 Кбит/сек

Видео
Идентификатор : 224 (0xE0)
Формат : MPEG Video
Версия формата : Version 2
Профиль формата : [email protected]
Параметр BVOP формата : Да
Параметр матрицы формата : По умолчанию
Параметр GOP формата : Variable
Продолжительность : 23 м.
Вид битрейта : Переменный
Битрейт : 5506 Кбит/сек
Максимальный битрейт : 8500 Кбит/сек
Ширина : 720 пикселей
Высота : 576 пикселей
Соотношение сторон : 16:9
Частота кадров : 25,000 кадров/сек
Стандарт вещания : PAL
Цветовое пространство : YUV
Субдискретизация насыщенности : 4:2:0
Битовая глубина : 8 бит
Тип развёртки : Прогрессивная
Метод сжатия : С потерями
Бит/(Пиксели*Кадры) : 0.531
Временной код первого кадра : 00:00:00:00
Оригинал временного кода : Group of pictures header
Размер потока : 928 Мбайт (91%)

Аудио
Идентификатор : 189 (0xBD)-128 (0x80)
Формат : AC-3
Формат/Информация : Audio Coding 3
Расширение режима : CM (complete main)
Параметр Endianness формата : Big
Режим смешивания : DVD-Video
Продолжительность : 23 м.
Вид битрейта : Постоянный
Битрейт : 448 Кбит/сек
Каналы : 6 каналов
Расположение каналов : Front: L C R, Side: L R, LFE
Частота : 48,0 КГц
Частота кадров : 31,250 кадров/сек (1536 spf)
Метод сжатия : С потерями
Размер потока : 75,5 Мбайт (7%)













Скачать
Чтобы иметь возможность скачивать с Торрент Трекера, нужно Зарегистрироваться

Как скачивать  ·  Рейтинг и ограничения

28-11-2019 20:33  


Отключить вcю реклaмy на сайте, в т.ч. и в плеере онлайн просмотра!

    Дорогой пользователь! Огромная просьба, поблагодарите релизера, оцените раздачу и оставьте свои комментарий, если Вы скачали Страна ОЗ через торрент бесплатно!!
    Комментировать посты могут только пользователи прошедшие не сложную регистрацию
    Показать сообщения:    


    Страна ОЗ через торрент
    Скачать бесплатно Страна ОЗ
    Страна ОЗ скачать торрент
    Страна ОЗ смотреть онлайн
    Cкачать фильм Страна ОЗ бесплатно
    Страна ОЗ скачать торрент в хорошем качестве
    Страна ОЗ смотреть онлайн бесплатно в хорошем качестве
    Вы не можете начинать темы
    Вы не можете отвечать на сообщения
    Вы не можете редактировать свои сообщения
    Вы не можете удалять свои сообщения
    Вы не можете голосовать в опросах
    Вы не можете прикреплять файлы к сообщениям
    Вы не можете скачивать файлы
    Страна ОЗ [2015, комедия, DVD9] R5 смотреть онлайн, скачать торрент picoco.icu