1 сезон

1 сезон

iTunes

1

КиноПоиск HD

Кинопоиск HD

iTunes

13

1 сезон

RePack

30

Новинка

ВАЖНО

ИГРА 18+

pack

RePack

MK11
pack

Легкие деньги

RePack

jed

RePack

fifa19

RePack

RDR2

RePack

NEED FOR SPEED™ PAYBACK

4 сезон

9 сезон

Бесстыжие 9 сезон

Все сериалы

все сериалы на PB.wtf

RePack

FAR CRY 5
  
Magnet ссылка

Агент Коди Бэнкс / Agent Cody Banks (Харольд Цварт) [2003 г., боевик, триллер, мелодрама, комедия, криминал, приключения, семейный, DVDRip-AVC, Дубляж] pb.wtf

Агент Коди Бэнкс через торрент pb.wtf

Размер: 1.46 GB | Добавлен: 5 лет 1 мес. назад | Торрент скачан:8 раз
Скачать  

14-03-2016 11:07 Агент Коди Бэнкс Скачать торрент  

Агент Коди Бэнкс / Agent Cody Banks
Год выпуска: 2003
Страна: США, Канада
Жанр: боевик, триллер, мелодрама, комедия, криминал, приключения, семейный
Продолжительность: 01:37:56
Перевод: Дубляж
Субтитры: Русские

Режиссер: Харольд Цварт

В ролях: Фрэнки Муниз, Хилари Дафф, Энджи Хэрмон, Кит Дэвид, Синтия Стивенсон, Арнольд Вослу, Дэниэл Робак, Иэн МакШейн, Даррел Хэммонд, Мартин Донован...

Описание: История о подростке по имени Коди Бэнкс, которого правительство США нанимает в качестве спецагента для выполнения особого задания. Миссия такова, что для ее выполнения нужен еще не вполне взрослый человек, которого можно было бы использовать в течение 10 лет и более.
В его первоначальное задачу входит очаровать одно милое юное создание, с тем, чтобы правительство потом могло подобраться к ее папочке, который построил Нанобоут, обладающий гораздо большими способностями, чем об этом было заявлено (чистить нефтяные пятна с поверхности океана).

Качество: DVDRip-AVC
Формат: MKV
Видео кодек: AVC
Аудио кодек: AC3
Видео: MPEG-4 ,Xvid (1024x432), 1678 Кбит/с, 25.000 кадра/сек
Аудио#1: AC3, 6 ch,448 kbps (Rus) 48.0 KHz Дублированный
скриншот   скриншот   скриншот  

Тип потока: Видео
Длительность: 01:37:56
Кодек: AVC
Кодек/описание: Advanced Video Codec
Кодек/профиль: High@L4.1
Кодек/ID: V_MPEG4/ISO/AVC
Кодек/CABAC: Yes
Кодек/ReFrames: 11 frames
Размеры изображения: 1024 x 432 (2.35:1)
Частота кадров: 25.000 fps
Частота кадров/тип: Constant
Размер потока: 1.12 GiB (77%)
Битрейт: 1 678 Kbps
Библиотека кодирования: x264 core 119 r2106 07efeb4
Цветовое пространство: YUV
Тип развёртки: Progressive
Колориметрия: 4:2:0
Глубина: 8 bits
Тип потока: Звук #1
Язык: Russian
Длительность: 01:37:56.520
Кодек: AC-3
Кодек/описание: Audio Coding 3
Кодек/ID: A_AC3
Частота дискретизации: 48.0 KHz
Каналов: 6 channels
Битрейт: 448 Kbps
Битрейт/тип: Constant
Размер потока: 314 MiB (21%)
Глубина: 16 bits
Метод сжатия: Lossy
:
Тип потока: Субтитры #1
Язык: Russian
Формат: UTF-8
Формат/подробно: UTF-8 Plain Text

pb.wtf



Скачать Агент Коди Бэнкс через торрент https://pic1.kartinco.top/images/10/z67od.jpg Скачать фильм Агент Коди Бэнкс через торрент бесплантно в хорошем качестве Описание: История о подростке по имени Коди Бэнкс, которого правительство США нанимает в качестве спецагента для выполнения особого ... 10 10 3
Торрент: Зарегистрирован [2016-03-14 11:07] · скачан: 8 раз
Статус: √ проверено
Размер: 1.46 GB
Как cкачать? Как скачать Агент Коди Бэнкс через торрент | UTorrent

% Раздел Тема Автор DL S | L
Фильмы 2001-2005 [ 745 MB ] Агент Коди Бэнкс / Agent Cody Banks [2003 DVDRip многоголосый ] axeplay Скачать
1 | 0
Фильмы 2001-2005 [ 1.46 GB ] Агент Коди Бэнкс 2: Пункт назначения - Лондон / Agent Cody Banks 2: Destination London [2004 DVDRip] ADS Скачать
1 | 0
Фильмы 2001-2005 [ 1.37 GB ] Агент Коди Бэнкс / Agent Cody Banks [2003 DVDRip лицензия] Deent Скачать
1 | 0

28-11-2019 20:33  

Отключить всю рекламу на сайте

    Дорогой пользователь! Огромная просьба, поблагодарите релизера, оцените раздачу и оставьте свои комментарий, если Вы скачали Агент Коди Бэнкс через торрент бесплатно! Внесите свою лепту в развитие PiratBit!
    Комментировать посты могут только пользователи прошедшие не сложную регистрацию
    Показать сообщения:    

    Агент Коди Бэнкс через торрент
    Скачать бесплатно Агент Коди Бэнкс
    Агент Коди Бэнкс скачать торрент
    Агент Коди Бэнкс смотреть онлайн
    Cкачать фильм Агент Коди Бэнкс бесплатно
    Агент Коди Бэнкс скачать торрент в хорошем качестве
    Агент Коди Бэнкс смотреть онлайн бесплатно в хорошем качестве


    Вы не можете начинать темы
    Вы не можете отвечать на сообщения
    Вы не можете редактировать свои сообщения
    Вы не можете удалять свои сообщения
    Вы не можете голосовать в опросах
    Вы не можете прикреплять файлы к сообщениям
    Вы можете скачивать файлы