Ссылка на приватное зеркало нашего сайта всего за 1$. Внимание количество ограничено!!!

2 сезон

iTunes

1 сезон

1

2 сезон

2 сезон

iTunes

1 сезон

RePack

30

Ultimate

ВАЖНО

ИГРА 18+

pack

RePack

MK11
pack

Забери бонус

RePack

jed

!!Акция!!

Alien_Rage

RePack

fifa19

RePack

Assassins Creed: Odyssey

RePack

NEED FOR SPEED™ PAYBACK

4 сезон

9 сезон

Бесстыжие 9 сезон

Все сериалы

все сериалы на PB.wtf

RePack

FAR CRY 5
  

Смертельно скучающий / Убить скуку / Bored to Death / Сезон: 1-3 / Серии: 1-24 из 24 (Майкл Леманн, Адам Бернштейн, Алан Тейлор) [2009-2011, комедия, криминал, детектив, HDRip] MVO (Novamedia) + Original pb.wtf

Смертельно скучающий через торрент pb.wtf

Размер: 10.52 GB | Добавлен: 4 года 8 мес. назад | Торрент скачан:147 раз
Скачать  

14-03-2016 17:14 Смертельно скучающий Скачать торрент  

Смертельно скучающий / Убить скуку / Bored to Death

Год выхода: 2009 - 2011

Страна: США

Студия: 3 Arts Entertainment, Dakota Pictures

Продолжительность: 24 x ~ 00:25:00

Перевод: Профессиональный многоголосый, закадровый [Novamedia]

Жанр: комедия, криминал, детектив

Режиссер: Майкл Леманн, Адам Бернштейн, Алан Тейлор



В ролях: Джейсон Шварцман, Зак Галифианакис, Тед Дэнсон, Хезер Бёрнс, Джон Ходжмэн, Дэвид Раш, Оливер Платт, Хэлли Фейффер, Дженни Слейт, Оливия Тирлби


Описание:

Главный герой сериала — Джонатан, неудавшийся писатель и пьяница. После болезненного разрыва с девушкой Джонатан решает подражать своим любимым персонажам из романов Чендлера и Хэммета. Он притворяется частным детективом и берется за разные дела, решая одни и еще больше запутывая другие.
1 сезон:

01. Stockholm Syndrome

02. The Alanon Case

03. The Case of The Missing Screenplay

04. The Case of The Stolen Skateboard

05. The Case of The Lonely White Dove

06. The Case of The Beautiful Blackmailer

07. The Case of The Stolen Sperm

08. Take a Dive

2 сезон:

01. Escape from the Dungeon!

02. Make it Quick, Fitzgerald!

03. The Gowanus Canal Has Gonorrhea!

04. I've Been Living Like a Demented God!

05. Forty-Two Down!

06. The Case of the Grievous Clerical Error!

07. Escape from the Castle!

08. Super Ray Is Mortal!

3 сезон:

01. The Blonde in the Woods

02. Gumball!

03. The Black Clock of Time

04. We Could Sing a Duet

05. I Keep Taking Baths Like Lady Macbeth

06. Two Large Pearls and a Bar of Gold

07. Forget the Herring

08. Nothing I Can't Handle by Running Away
Озвучка: Новамедия по заказу Amedia

Роли озвучивали: Михаил Тихонов, Сергей Смирнов, Никита Прозоровский, Екатерина Семенова.

Автор перевода: Никита Одиноков

Работа со звуком: 13napas

Рип: ЛП
Файл
Качество: HDRip
Формат: XviD
Видео: 720x400 (16:9), 23.976 fps ~ 2000 Kbps
Аудио 1: АС3, 48 KHz, 2 ch, ~ 192 Kb/s (русский)
Аудио 2: АС3, 48 KHz, 2 ch, ~ 192 Kb/s (английский)

Код:

Общее
Полное имя                               : H:\Убить скуку(Bored to Вeath)\Bored to Death Season 1 CasStudio.TV\Bored.to.Death.s01e01.rus.eng.CasStudio.TV.avi
Формат                                   : AVI
Формат/Информация                        : Audio Video Interleave
Размер файла                             : 514 Мбайт
Продолжительность                        : 29 м.
Общий поток                              : 2398 Кбит/сек
Программа кодирования                    : VirtualDubMod 1.5.10.2 (build 2540/release)
Библиотека кодирования                   : VirtualDubMod build 2540/release

Видео
Идентификатор                            : 0
Формат                                   : MPEG-4 Visual
Профиль формата                          : Advanced Simple@L5
Параметр BVOP формата                    : 1
Параметр QPel формата                    : Нет
Параметр GMC формата                     : Без точки перехода
Параметр матрицы формата                 : Default (MPEG)
Идентификатор кодека                     : XVID
Идентификатор кодека/Подсказка           : XviD
Продолжительность                        : 29 м.
Битрейт                                  : 2000 Кбит/сек
Ширина                                   : 720 пикселей
Высота                                   : 400 пикселей
Соотношение сторон                       : 16:9
Частота кадров                           : 23,976 (23976/1000) кадра/сек
Цветовое пространство                    : YUV
Субдискретизация насыщенности            : 4:2:0
Битовая глубина                          : 8 бит
Тип развёртки                            : Прогрессивная
Метод сжатия                             : С потерями
Бит/(Пиксели*Кадры)                      : 0.290
Размер потока                            : 429 Мбайт (83%)
Библиотека кодирования                   : XviD 65

Аудио #1
Идентификатор                            : 1
Формат                                   : AC-3
Формат/Информация                        : Audio Coding 3
Расширение режима                        : CM (complete main)
Параметр Endianness формата              : Big
Идентификатор кодека                     : 2000
Продолжительность                        : 29 м.
Вид битрейта                             : Постоянный
Битрейт                                  : 192 Кбит/сек
Каналы                                   : 2 канала
Расположение каналов                     : Front: L R
Частота                                  : 48,0 КГц
Частота кадров                           : 31,250 кадров/сек (1536 spf)
Метод сжатия                             : С потерями
Размер потока                            : 41,1 Мбайт (8%)
Выравнивание                             : Разделение по промежуткам
Продолжительность промежутка             : 42  мс. (1,00 видеокадр)
Время предзагрузки промежутка            : 500  мс.

Аудио #2
Идентификатор                            : 2
Формат                                   : AC-3
Формат/Информация                        : Audio Coding 3
Расширение режима                        : CM (complete main)
Параметр Endianness формата              : Big
Идентификатор кодека                     : 2000
Продолжительность                        : 29 м.
Вид битрейта                             : Постоянный
Битрейт                                  : 192 Кбит/сек
Каналы                                   : 2 канала
Расположение каналов                     : Front: L R
Частота                                  : 48,0 КГц
Частота кадров                           : 31,250 кадров/сек (1536 spf)
Метод сжатия                             : С потерями
Размер потока                            : 41,1 Мбайт (8%)
Выравнивание                             : Разделение по промежуткам
Продолжительность промежутка             : 42  мс. (1,00 видеокадр)
Время предзагрузки промежутка            : 500  мс.

Релиз от: pb.wtf
K-Lexx- писал(а):

Залито по заказу.



Скачать Смертельно скучающий через торрент http://i63.fastpic.ru/big/2015/0213/05/4bfdfc265851d6c84028c7edee88e205.jpg Скачать фильм Смертельно скучающий через торрент бесплантно в хорошем качестве Описание: Главный герой сериала — Джонатан, неудавшийся писатель и пьяница. После болезненного разрыва с девушкой Джонатан решает подражать ... 8.9 10 8
Info! Золотая раздача, скачанное не засчитывается.
Торрент: Зарегистрирован [2016-03-14 17:14] · скачан: 147 раз
Статус: √ проверено
Размер: 10.52 GB
Как cкачать? Как скачать Смертельно скучающий через торрент | qTorrent

28-11-2019 20:33  

Отключить всю рекламу на сайте

15-03-2016 19:59 Смертельно скучающий Скачать торрент  

Большое спасибо!)pb.wtf



    Дорогой пользователь! Огромная просьба, поблагодарите релизера, оцените раздачу и оставьте свои комментарий, если Вы скачали Смертельно скучающий через торрент бесплатно! Внесите свою лепту в развитие PiratBit!
    Комментировать посты могут только пользователи прошедшие не сложную регистрацию
    Показать сообщения:    

    Смертельно скучающий через торрент
    Скачать бесплатно Смертельно скучающий
    Смертельно скучающий скачать торрент
    Смертельно скучающий смотреть онлайн
    Cкачать фильм Смертельно скучающий бесплатно
    Смертельно скучающий скачать торрент в хорошем качестве
    Смертельно скучающий смотреть онлайн бесплатно в хорошем качестве


    Вы не можете начинать темы
    Вы не можете отвечать на сообщения
    Вы не можете редактировать свои сообщения
    Вы не можете удалять свои сообщения
    Вы не можете голосовать в опросах
    Вы не можете прикреплять файлы к сообщениям
    Вы можете скачивать файлы