Ссылка на приватное зеркало нашего сайта всего за 1$. Внимание количество ограничено!!!

2 сезон

iTunes

1 сезон

1

iTunes

iTunes

iTunes

1 сезон

RePack

30

ИГРА 18+

pack

ВАЖНО

!!Акция!!

Alien_RageХит недели

RePack

MK11
pack

Забери бонус

RePack

jed

!!Акция!!

Alien_Rage

RePack

fifa19

RePack

Assassins Creed: Odyssey

RePack

NEED FOR SPEED™ PAYBACK

4 сезон

9 сезон

Бесстыжие 9 сезон

Все сериалы

все сериалы на PB.wtf

RePack

FAR CRY 5
  

Отряд «Америка»: Всемирная полиция / Team America: World Police (Трей Паркер / Trey Parker) [2004, мультфильм, боевик, комедия, BDRip-AVC от potroks] DVO pb.wtf

Отряд «Америка»: Всемирная полиция через торрент pb.wtf

Размер: 2.18 GB | Добавлен: 4 года 7 мес. назад | Торрент скачан:29 раз
Скачать  

15-03-2016 06:20 Отряд «Америка»: Всемирная полиция Скачать торрент  

Отряд «Америка»: Всемирная полиция / Team America: World Police
«Putting The 'F' Back In Freedom»
Год выпуска: 2004
Страна: США, Германия / Paramount Pictures...
Жанр: мультфильм, боевик, комедия
Продолжительность: 01:37:42
Перевод: Профессиональный (двухголосый) [Tycoon-Studio]
Субтитры: русские, английские (Full), английские (SDH)
Навигация по главам: есть
Режиссер: Трей Паркер / Trey Parker
В ролях:

Трей Паркер (Gary Johnston / Joe / Kim Jong Il / Hans Blix / Carson / Matt Damon / Drunk in Bar / Tim Robbins / Sean Penn / Michael Moore / Helen Hunt / Susan Sarandon / Others, озвучка), Мэтт Стоун (Chris / George Clooney / Danny Glover / Ethan Hawke / дополнительные голоса, озвучка), Кристен Миллер (Lisa, озвучка), Масаса Мойо (Sarah, озвучка), Даран Норрис (Spottswoode, озвучка), Фил Хендри (I.N.T.E.L.L.I.G.E.N.C.E. / Chechnyan Terrorist, озвучка), Морис ЛаМарш (Alec Baldwin, озвучка), Челси Маргерит (French Mother, озвучка), Джереми Шэда (Jean Francois, озвучка), Фред Татаскьор (Samuel L. Jackson, озвучка), Джозиа Д. Ли (International Counter Intelligence Officer, озвучка), Джон Д. Ким (Guard / Korean Pilot / Others, озвучка, в титрах не указан)
Описание: Команда «Америка»! Круче ребят отродясь не бывало! Команда «Америка» всегда готова прийти на помощь! Если где террористы замышляют чёрное дело - команда тут как тут! Эти бравые парни и девчонки наведут порядок во всём мире, даже если... их об этом никто не просит. Когда очередная угроза нависла над миром, команда «Америка» решается на самый отчаянный шаг: вербует бродвейского актёра Гэри Джонстона, чтобы тот под видом арабского террориста проник в логово врагов и разузнал место нахождения оружия массового поражения. И вроде бы миссия с блеском выполнена, но что такое? - на команду обозлился весь мир во главе с «Коалицией Американских Лицедеев», а земля снова под угрозой глобального теракта...

Качество: BDRip-AVC
Формат: MKV
Видео кодек: AVC
Аудио кодек: AC3
Видео: 1048x440 (2.40:1), 2299 kbps, 23,976 fps, 0,208 bit/pixel
Аудио №1: AC3 / 5.1 / 48 kHz / 448 kbps / 16 bit | RUS
Аудио №2: AC3 / 5.1 / 48 kHz / 448 kbps / 16 bit | ENG

Релиз группы:
Автор рипа: potroks

Код:

Общее
Уникальный идентификатор : 207323912665855296401216565124586586341 (0x9BF92216B67898D18C271AF5555CC0E5)
Полное имя : Otryad.Amerika.Vsemirnaya.Politcyia.2014.DUAL.BDRip.x264.-HELLYWOOD.mkv
Формат : Matroska
Версия формата : Version 4 / Version 2
Размер файла : 2,18 Гбайт
Продолжительность : 1 ч. 37 м.
Общий поток : 3193 Кбит/сек
Название фильма : Team America: World Police (2004) - HELLYWOOD
Дата кодирования : UTC 2016-03-15 05:54:33
Программа кодирования : mkvmerge v5.9.0 ('On The Loose') built on Dec 15 2012 16:39:58
Библиотека кодирования : libebml v1.3.0 + libmatroska v1.4.0

Видео
Идентификатор : 1
Формат : AVC
Формат/Информация : Advanced Video Codec
Профиль формата : High@L4.1
Параметр CABAC формата : Да
Параметр ReFrames формата : 10 кадров
Идентификатор кодека : V_MPEG4/ISO/AVC
Продолжительность : 1 ч. 37 м.
Битрейт : 2299 Кбит/сек
Ширина : 1048 пикселей
Высота : 440 пикселей
Соотношение сторон : 2,40:1
Режим частоты кадров : Постоянный
Частота кадров : 23,976 кадра/сек
Цветовое пространство : YUV
Субдискретизация насыщенности : 4:2:0
Битовая глубина : 8 бит
Тип развёртки : Прогрессивная
Бит/(Пиксели*Кадры) : 0.208
Размер потока : 1,52 Гбайт (70%)
Заголовок : potroks
Библиотека кодирования : x264 core 148 r2665M a01e339
Настройки программы : cabac=1 / ref=10 / deblock=1:-1:-1 / analyse=0x3:0x133 / me=umh / subme=11 / psy=1 / psy_rd=1.00:0.05 / mixed_ref=1 / me_range=48 / chroma_me=1 / trellis=2 / 8x8dct=1 / cqm=0 / deadzone=21,11 / fast_pskip=0 / chroma_qp_offset=-3 / threads=9 / lookahead_threads=2 / sliced_threads=0 / nr=0 / decimate=1 / interlaced=0 / bluray_compat=0 / constrained_intra=0 / bframes=11 / b_pyramid=2 / b_adapt=2 / b_bias=0 / direct=3 / weightb=1 / open_gop=0 / weightp=2 / keyint=240 / keyint_min=23 / scenecut=40 / intra_refresh=0 / rc=2pass / mbtree=0 / bitrate=2299 / ratetol=1.0 / qcomp=0.70 / qpmin=0 / qpmax=69 / qpstep=4 / cplxblur=20.0 / qblur=0.5 / ip_ratio=1.40 / pb_ratio=1.30 / aq=1:0.80
Язык : English
Default : Да
Forced : Нет

Аудио #1
Идентификатор : 2
Формат : AC-3
Формат/Информация : Audio Coding 3
Расширение режима : CM (complete main)
Параметр Endianness формата : Big
Идентификатор кодека : A_AC3
Продолжительность : 1 ч. 37 м.
Вид битрейта : Постоянный
Битрейт : 448 Кбит/сек
Каналы : 6 каналов
Расположение каналов : Front: L C R, Side: L R, LFE
Частота : 48,0 КГц
Метод сжатия : С потерями
Размер потока : 313 Мбайт (14%)
Заголовок : DVO | DD 5.1 @ 448 kbps - Tycoon-Studio
Язык : Russian
Default : Да
Forced : Нет

Аудио #2
Идентификатор : 3
Формат : AC-3
Формат/Информация : Audio Coding 3
Расширение режима : CM (complete main)
Параметр Endianness формата : Big
Идентификатор кодека : A_AC3
Продолжительность : 1 ч. 37 м.
Вид битрейта : Постоянный
Битрейт : 448 Кбит/сек
Каналы : 6 каналов
Расположение каналов : Front: L C R, Side: L R, LFE
Частота : 48,0 КГц
Метод сжатия : С потерями
Размер потока : 313 Мбайт (14%)
Заголовок : Original | DD 5.1 @ 448 kbps
Язык : English
Default : Нет
Forced : Нет

Текст #1
Идентификатор : 4
Формат : UTF-8
Идентификатор кодека : S_TEXT/UTF8
Идентификатор кодека/Информация : UTF-8 Plain Text
Язык : Russian
Default : Нет
Forced : Нет

Текст #2
Идентификатор : 5
Формат : UTF-8
Идентификатор кодека : S_TEXT/UTF8
Идентификатор кодека/Информация : UTF-8 Plain Text
Заголовок : Full
Язык : English
Default : Нет
Forced : Нет

Текст #3
Идентификатор : 6
Формат : UTF-8
Идентификатор кодека : S_TEXT/UTF8
Идентификатор кодека/Информация : UTF-8 Plain Text
Заголовок : SDH
Язык : English
Default : Нет
Forced : Нет

Меню
00:00:00.000 : :Terrorize This
00:06:43.820 : :Top Gun Actor
00:13:27.932 : :Welcome to Team Base
00:18:33.696 : :Or Should I Say Hakmed?
00:24:19.375 : :I Like Balls
00:31:18.418 : :Bakalakadaka Street
00:38:05.700 : :I Promise, I Will Never Die
00:43:40.910 : :Panama Canal
00:49:47.067 : :We Have No Intelligence!
00:54:51.580 : :I'm So Ronery
01:00:11.858 : :Film Actors Guild
01:06:07.213 : :Montage
01:11:50.306 : :We're Guards!
01:17:11.502 : :Panthers
01:22:34.533 : :I'm A Smoker
01:30:17.078 : :So Long Earthlings!

pb.wtf



Скачать Отряд «Америка»: Всемирная полиция через торрент http://i74.fastpic.ru/big/2016/0315/83/a64cf8b0943936c6d878826ce71e5583.png Скачать фильм Отряд «Америка»: Всемирная полиция через торрент бесплантно в хорошем качестве Описание: Команда «Америка»! Круче ребят отродясь не бывало! Команда «Америка» всегда готова прийти на помощь! Если где террористы ... 7.1 10 8
Info! Золотая раздача, скачанное не засчитывается.
Торрент: Зарегистрирован [2016-03-15 06:20] · скачан: 29 раз
Статус: √ проверено
Размер: 2.18 GB
Как cкачать? Как скачать Отряд «Америка»: Всемирная полиция через торрент | qTorrent

28-11-2019 20:33  

Отключить всю рекламу на сайте

15-03-2016 08:52 Отряд «Америка»: Всемирная полиция Скачать торрент  

угарный мульт в стиле робоцыпа. реально ржачный, правда небольшой перебор с шутками про говно, но это ж амерканцы))pb.wtf



19-03-2016 02:42 Отряд «Америка»: Всемирная полиция Скачать торрент  

любителям черного юмора мимо не проходитьpb.wtf



    Дорогой пользователь! Огромная просьба, поблагодарите релизера, оцените раздачу и оставьте свои комментарий, если Вы скачали Отряд «Америка»: Всемирная полиция через торрент бесплатно! Внесите свою лепту в развитие PiratBit!
    Комментировать посты могут только пользователи прошедшие не сложную регистрацию
    Показать сообщения:    

    Отряд «Америка»: Всемирная полиция через торрент
    Скачать бесплатно Отряд «Америка»: Всемирная полиция
    Отряд «Америка»: Всемирная полиция скачать торрент
    Отряд «Америка»: Всемирная полиция смотреть онлайн
    Cкачать фильм Отряд «Америка»: Всемирная полиция бесплатно
    Отряд «Америка»: Всемирная полиция скачать торрент в хорошем качестве
    Отряд «Америка»: Всемирная полиция смотреть онлайн бесплатно в хорошем качестве


    Вы не можете начинать темы
    Вы не можете отвечать на сообщения
    Вы не можете редактировать свои сообщения
    Вы не можете удалять свои сообщения
    Вы не можете голосовать в опросах
    Вы не можете прикреплять файлы к сообщениям
    Вы можете скачивать файлы