Ссылка на приватное зеркало нашего сайта всего за 1$. Внимание количество ограничено!!!

2 сезон

iTunes

1 сезон

1

iTunes

iTunes

iTunes

1 сезон

RePack

30

ИГРА 18+

pack

ВАЖНО

!!Акция!!

Alien_RageХит недели

RePack

MK11
pack

Забери бонус

RePack

jed

!!Акция!!

Alien_Rage

RePack

fifa19

RePack

Assassins Creed: Odyssey

RePack

NEED FOR SPEED™ PAYBACK

4 сезон

9 сезон

Бесстыжие 9 сезон

Все сериалы

все сериалы на PB.wtf

RePack

FAR CRY 5
  

Страшные сказки / Il racconto dei racconti (Маттео Гарроне ) [2015, ужасы, фэнтези, мелодрама, BDRip 720p от _denis_100 / NNNB] DUB, MVO, AVO pb.wtf

Страшные сказки через торрент pb.wtf

Размер: 6.82 GB | Добавлен: 4 года 7 мес. назад | Торрент скачан:242 раза
Скачать  

15-03-2016 18:01 Страшные сказки Скачать торрент  

Страшные сказки / Il racconto dei racconti


Год выпуска: 2015
Страна: Италия, Франция, Великобритания
Жанр: ужасы, фэнтези, мелодрама
Продолжительность: 02:14:16
Перевод: Дублированный - [iTunes], Любительский многоголосый, Авторский одноголосый
Субтитры: русские
Режиссер: Маттео Гарроне
В ролях: Сальма Хайек , Венсан Кассель , Тоби Джонс , Джон Си Райли , Ширли Хендерсон , Хейли Кармайкл , Бебе Кейв , Стэйси Мартин , Кристиан Лис , Джона Лис , Лаура Пиццирани , Франко Пистони
Описание:
Маги и волшебники, короли и королевы, красавицы-принцессы и страшилы-великаны населяют эту потрясающую готическую фантазию. Сластолюбивый Король Одинокого Утеса берет в жены прелестную деву, а она превращается в уродливую старуху. Отважный Король Долины Туманов отправляется на бой с драконом, поскольку волшебник предсказал, что королева понесет ребенка, если съест сердце дракона. Ну, а Король Диких Гор с любовью выращивает гигантскую блоху, а родную дочь без тени сожаления отдает в жены горному огру. За стенами величественных замков строятся коварные козни, даются безрассудные обеты, там страстно любят и жестоко убивают...

Качество: BDRip 720p
Контейнер (Расширение): MKV
Видео: 1280x544, 4968 Кбит/сек, 24 кадр/сек, 0,297 Бит/[Пиксели*Кадры]
Аудио №1: русский / AC3 / 5.1 / 48 kHz / 384 kbps / 16 bit |Дублированный [iTunes]|
Аудио №2: русский / AC3 / 5.1 / 48 kHz / 640 kbps / 16 bit |Авторский одноголосый, Сербин|
Аудио №3: русский / AC3 / 5.1 / 48 kHz / 640 kbps / 16 bit |Любительский многоголосый, Paradox & OMSKBIRD records|
Аудио №4: английский / AC3 / 5.1 / 48 kHz / 640 kbps / 16 bit
Навигация по главам(Чаптеры): естьСкачать отдельно авторский перевод Юрия Сербина (AC3 / 5.1 / 48 kHz / 640 kbps / 16 bit)Автор рипа: Сообщество:

Код:

Format                                   : Matroska
Format version                           : Version 2
File size                                : 6.82 GiB
Duration                                 : 2h 14mn
Overall bit rate                         : 7 269 Kbps
Movie name                               : Strashnye skazki.(2015).BDRip.720p.[denis100]
Encoded date                             : UTC 2016-03-15 17:07:17
Writing application                      : mkvmerge v5.8.0 ('No Sleep / Pillow') built on Sep  2 2012 15:37:04
Writing library                          : libebml v1.2.3 + libmatroska v1.3.0

Video
ID                                       : 1
Format                                   : AVC
Format/Info                              : Advanced Video Codec
Format profile                           : High@L4.1
Format settings, CABAC                   : Yes
Format settings, ReFrames                : 11 frames
Codec ID                                 : V_MPEG4/ISO/AVC
Duration                                 : 2h 14mn
Bit rate                                 : 4 968 Kbps
Width                                    : 1 280 pixels
Height                                   : 544 pixels
Display aspect ratio                     : 2.35:1
Frame rate                               : 24.000 fps
Color space                              : YUV
Chroma subsampling                       : 4:2:0
Bit depth                                : 8 bits
Scan type                                : Progressive
Bits/(Pixel*Frame)                       : 0.297
Stream size                              : 4.52 GiB (66%)
Title                                    : Strashnye skazki.(2015).BDRip.720p.[denis100]
Writing library                          : x264 core 148 r2665 a01e339
Encoding settings                        : cabac=1 / ref=11 / deblock=1:-3:-3 / analyse=0x3:0x133 / me=umh / subme=11 / psy=1 / psy_rd=1.00:0.00 / mixed_ref=1 / me_range=32 / chroma_me=1 / trellis=2 / 8x8dct=1 / cqm=0 / deadzone=21,11 / fast_pskip=0 / chroma_qp_offset=-2 / threads=6 / lookahead_threads=1 / sliced_threads=0 / nr=0 / decimate=1 / interlaced=0 / bluray_compat=0 / constrained_intra=0 / bframes=10 / b_pyramid=2 / b_adapt=2 / b_bias=0 / direct=3 / weightb=1 / open_gop=0 / weightp=2 / keyint=240 / keyint_min=24 / scenecut=40 / intra_refresh=0 / rc=2pass / mbtree=0 / bitrate=4968 / ratetol=1.0 / qcomp=0.60 / qpmin=0 / qpmax=69 / qpstep=4 / cplxblur=20.0 / qblur=0.5 / ip_ratio=1.40 / pb_ratio=1.30 / aq=1:1.00
Language                                 : English
Default                                  : Yes
Forced                                   : No

Audio #1
ID                                       : 2
Format                                   : AC-3
Format/Info                              : Audio Coding 3
Mode extension                           : CM (complete main)
Codec ID                                 : A_AC3
Duration                                 : 2h 14mn
Bit rate mode                            : Constant
Bit rate                                 : 384 Kbps
Channel(s)                               : 6 channels
Channel positions                        : Front: L C R, Side: L R, LFE
Sampling rate                            : 48.0 KHz
Bit depth                                : 16 bits
Compression mode                         : Lossy
Stream size                              : 369 MiB (5%)
Title                                    : iTunes
Language                                 : Russian
Default                                  : Yes
Forced                                   : No

Audio #2
ID                                       : 3
Format                                   : AC-3
Format/Info                              : Audio Coding 3
Mode extension                           : CM (complete main)
Codec ID                                 : A_AC3
Duration                                 : 2h 14mn
Bit rate mode                            : Constant
Bit rate                                 : 640 Kbps
Channel(s)                               : 6 channels
Channel positions                        : Front: L C R, Side: L R, LFE
Sampling rate                            : 48.0 KHz
Bit depth                                : 16 bits
Compression mode                         : Lossy
Stream size                              : 615 MiB (9%)
Title                                    : AVO, Сербин
Language                                 : Russian
Default                                  : No
Forced                                   : No

Audio #3
ID                                       : 4
Format                                   : AC-3
Format/Info                              : Audio Coding 3
Mode extension                           : CM (complete main)
Codec ID                                 : A_AC3
Duration                                 : 2h 14mn
Bit rate mode                            : Constant
Bit rate                                 : 640 Kbps
Channel(s)                               : 6 channels
Channel positions                        : Front: L C R, Side: L R, LFE
Sampling rate                            : 48.0 KHz
Bit depth                                : 16 bits
Compression mode                         : Lossy
Stream size                              : 615 MiB (9%)
Title                                    : MVO, Paradox & OMSKBIRD records
Language                                 : Russian
Default                                  : No
Forced                                   : No

Audio #4
ID                                       : 5
Format                                   : AC-3
Format/Info                              : Audio Coding 3
Mode extension                           : CM (complete main)
Codec ID                                 : A_AC3
Duration                                 : 2h 14mn
Bit rate mode                            : Constant
Bit rate                                 : 640 Kbps
Channel(s)                               : 6 channels
Channel positions                        : Front: L C R, Side: L R, LFE
Sampling rate                            : 48.0 KHz
Bit depth                                : 16 bits
Compression mode                         : Lossy
Stream size                              : 615 MiB (9%)
Language                                 : English
Default                                  : No
Forced                                   : No

Text
ID                                       : 6
Format                                   : UTF-8
Codec ID                                 : S_TEXT/UTF8
Codec ID/Info                            : UTF-8 Plain Text
Language                                 : Russian
Default                                  : No
Forced                                   : No

Menu
00:00:00.000                             : en:Chapter 01
00:08:36.788                             : en:Chapter 02
00:19:37.750                             : en:Chapter 03
00:26:20.250                             : en:Chapter 04
00:36:05.000                             : en:Chapter 05
00:44:24.083                             : en:Chapter 06
00:56:14.458                             : en:Chapter 07
01:09:24.582                             : en:Chapter 08
01:24:24.625                             : en:Chapter 09
01:33:59.332                             : en:Chapter 10
01:47:49.332                             : en:Chapter 11
02:01:58.916                             : en:Chapter 12

x264 [info]: frame I:1019 Avg QP:13.62 size:156596
x264 [info]: frame P:45140 Avg QP:16.46 size: 54966
x264 [info]: frame B:147186 Avg QP:17.77 size: 16050
pb.wtf



Скачать Страшные сказки через торрент http://i73.fastpic.ru/big/2016/0315/de/51ffc1e9dfe04c083234cf0a180ecede.png Скачать фильм Страшные сказки через торрент бесплантно в хорошем качестве Описание:Маги и волшебники, короли и королевы, красавицы-принцессы и страшилы-великаны населяют эту потрясающую готическую фантазию. ... 8.5 10 13
Info! Золотая раздача, скачанное не засчитывается.
Торрент: Зарегистрирован [2016-03-15 18:01] · скачан: 242 раз
Статус: √ проверено
Размер: 6.82 GB
Как cкачать? Как скачать Страшные сказки через торрент | qTorrent

28-11-2019 20:33  

Отключить всю рекламу на сайте

15-03-2016 21:59 Страшные сказки Скачать торрент  

нормо фильм класpb.wtf



16-03-2016 14:32 Страшные сказки Скачать торрент  

Давно с Сальмой, ничего путного не выходило.pb.wtf



    Дорогой пользователь! Огромная просьба, поблагодарите релизера, оцените раздачу и оставьте свои комментарий, если Вы скачали Страшные сказки через торрент бесплатно! Внесите свою лепту в развитие PiratBit!
    Комментировать посты могут только пользователи прошедшие не сложную регистрацию
    Показать сообщения:    

    Страшные сказки через торрент
    Скачать бесплатно Страшные сказки
    Страшные сказки скачать торрент
    Страшные сказки смотреть онлайн
    Cкачать фильм Страшные сказки бесплатно
    Страшные сказки скачать торрент в хорошем качестве
    Страшные сказки смотреть онлайн бесплатно в хорошем качестве


    Вы не можете начинать темы
    Вы не можете отвечать на сообщения
    Вы не можете редактировать свои сообщения
    Вы не можете удалять свои сообщения
    Вы не можете голосовать в опросах
    Вы не можете прикреплять файлы к сообщениям
    Вы можете скачивать файлы