Ссылка на приватное зеркало нашего сайта всего за 1$. Внимание количество ограничено!!!

2 сезон

iTunes

1 сезон

1

iTunes

iTunes

iTunes

1 сезон

RePack

30

ИГРА 18+

pack

ВАЖНО

!!Акция!!

Alien_RageХит недели

RePack

MK11
pack

Забери бонус

RePack

jed

!!Акция!!

Alien_Rage

RePack

fifa19

RePack

Assassins Creed: Odyssey

RePack

NEED FOR SPEED™ PAYBACK

4 сезон

9 сезон

Бесстыжие 9 сезон

Все сериалы

все сериалы на PB.wtf

RePack

FAR CRY 5
  

Слепая ярость / Blind Fury (Филлип Нойс) [1989, боевик, триллер, драма, комедия, криминал, BDRip 720p by msltel] DUB, 4 x MVO, 2 x AVO pb.wtf

Слепая ярость через торрент pb.wtf

Размер: 4.31 GB | Добавлен: 4 года 7 мес. назад | Торрент скачан:51 раз
Скачать  

16-03-2016 07:41 Слепая ярость Скачать торрент  

Название: Слепая ярость
Оригинальное название: Blind Fury
Год выпуска: 1989
Страна: США
Жанр: боевик, триллер, драма, комедия, криминал
Продолжительность: 01:26:25
Перевод: дублированный, профессиональный многоголосый, авторский

Режиссёр: Филлип Нойс

В ролях: Рутгер Хауэр, Терри О`Куинн, Брэндон Колл, Ноубл Уиллингэм, Лиза Блаунт, Ник Кассаветис, Рик Овертон, Рэндал «Текс» Кобб, Чарльз Купер, Мег Фостер, Сё Косуги, Пол Джеймс Васкес, Джулия Гонзалез, Вуди Уотсон, Алекс Моррис, Марк Фикерт, Уизел Форшоу, Рой Морган, С.К. МакФарланд, Т.Дж. МакФарланд, Блу Декерт, Гленн Ламперт, Ред Митчел, Бонни Саггс, Гарольд Саггс, Дороти Ле Мэй, Шарон Шакелфорд, Тайгер Чун Ли, Р. Нельсон Браун, Линкольн Кэйси мл., Дебора Уильямс, Кайл Тэтчер, Патриция Мэтьюз, Эрнест Макк, Линвуд Уолкер, Роберт Прентисс, Джеффри Дж. Дашнау, Гленн Р. Уайлдер, Дэвид Р. Эллис, Майкл Адамс, Дэйв

Описание: На первый взгляд он беспомощный слепой, один из тысяч несчастных бродяг. Но не стоит слишком полагаться на собственное зрение. Ветеран Вьетнама Ник Паркер ослеп на войне, но жестокий Восток научил свою жертву великому искусству защищаться. Вернувшись к мирной жизни, бывший солдат вынужден снова вступить в бой. Нику не нужно видеть своих врагов. Слепая ярость приведёт его прямо к ним...



Качество: BDRip 720p Сравнение с исходником
Формат: MKV
Видео: MPEG-4 AVC, 5609 Kбит/с, 1280x720, 23,976 кадра/с
Аудио 1: русский, AC3, 192 kbps, 2 ch, 48 kHz [дублированный, Варус Видео]
Аудио 2: русский, AC3, 192 kbps, 2 ch, 48 kHz [профессиональный многоголосый, R5]
Аудио 3: русский, AC3, 192 kbps, 2 ch, 48 kHz [авторский, Андрей Гаврилов]

Внешние файлы
Аудио: русский, AC3, 192 kbps, 2 ch, 48 kHz [профессиональный многоголосый, 1 канал]
Аудио: русский, AC3, 192 kbps, 2 ch, 48 kHz [профессиональный многоголосый, CTC]
Аудио: русский, AC3, 192 kbps, 2 ch, 48 kHz [профессиональный многоголосый, Видеосервис]
Аудио: русский, AC3, 192 kbps, 2 ch, 48 kHz [авторский, Владимир Завгородний]
Аудио: английский, AC3, 192 kbps, 2 ch, 48 kHz [оригинал]
Субтитры: русские
Общее
Полное имя : D:\Video\Слепая ярость.1989.BDRip.720p\Слепая ярость.1989.AVO.rus.В.Завгородний.ac3
Формат : AC-3
Формат/Информация : Audio Coding 3
Размер файла : 119 Мбайт
Продолжительность : 1 ч. 26 м.
Режим общего битрейта : Постоянный
Общий поток : 192 Кбит/сек

Аудио
Формат : AC-3
Формат/Информация : Audio Coding 3
Профиль формата : Dolby Digital
Расширение режима : CM (complete main)
Параметр Endianness формата : Big
Продолжительность : 1 ч. 26 м.
Вид битрейта : Постоянный
Битрейт : 192 Кбит/сек
Каналы : 2 канала
Расположение каналов : Front: L R
Частота : 48,0 КГц
Частота кадров : 31,250 кадров/сек (1536 spf)
Метод сжатия : С потерями
Размер потока : 119 Мбайт (100%)

Общее
Уникальный идентификатор : 195973125315246552251768338200933569051 (0x936F0D109014E5D9AFBB9530740E121B)
Полное имя : D:\Video\Слепая ярость.1989.BDRip.720p\Слепая ярость.1989.BDRip.720p.mkv
Формат : Matroska
Версия формата : Version 4 / Version 2
Размер файла : 3,74 Гбайт
Продолжительность : 1 ч. 26 м.
Общий поток : 6188 Кбит/сек
Дата кодирования : UTC 2016-03-16 03:19:21
Программа кодирования : mkvmerge v8.2.0 ('World of Adventure') 64bit
Библиотека кодирования : libebml v1.3.1 + libmatroska v1.4.2

Видео
Идентификатор : 1
Формат : AVC
Формат/Информация : Advanced Video Codec
Профиль формата : High@L4.1
Параметр CABAC формата : Да
Параметр ReFrames формата : 9 кадров
Идентификатор кодека : V_MPEG4/ISO/AVC
Продолжительность : 1 ч. 26 м.
Битрейт : 5609 Кбит/сек
Ширина : 1280 пикселей
Высота : 720 пикселей
Соотношение сторон : 16:9
Режим частоты кадров : Постоянный
Частота кадров : 23,976 (24000/1001) кадра/сек
Цветовое пространство : YUV
Субдискретизация насыщенности : 4:2:0
Битовая глубина : 8 бит
Тип развёртки : Прогрессивная
Бит/(Пиксели*Кадры) : 0.254
Размер потока : 3,39 Гбайт (91%)
Библиотека кодирования : x264 core 146 r2538 121396c
Настройки программы : cabac=1 / ref=9 / deblock=1:-3:-3 / analyse=0x3:0x113 / me=umh / subme=10 / psy=1 / psy_rd=1.00:0.15 / mixed_ref=1 / me_range=32 / chroma_me=1 / trellis=2 / 8x8dct=1 / cqm=0 / deadzone=21,11 / fast_pskip=1 / chroma_qp_offset=-3 / threads=6 / lookahead_threads=1 / sliced_threads=0 / nr=0 / decimate=1 / interlaced=0 / bluray_compat=0 / constrained_intra=0 / bframes=7 / b_pyramid=2 / b_adapt=2 / b_bias=0 / direct=1 / weightb=1 / open_gop=0 / weightp=2 / keyint=230 / keyint_min=23 / scenecut=40 / intra_refresh=0 / rc_lookahead=40 / rc=crf / mbtree=0 / crf=20.4 / qcomp=0.60 / qpmin=0 / qpmax=69 / qpstep=4 / vbv_maxrate=40000 / vbv_bufsize=50000 / crf_max=0.0 / nal_hrd=none / filler=0 / ip_ratio=1.40 / pb_ratio=1.30 / aq=1:1.00
Язык : English
Default : Да
Forced : Нет

Аудио #1
Идентификатор : 2
Формат : AC-3
Формат/Информация : Audio Coding 3
Профиль формата : Dolby Digital
Расширение режима : CM (complete main)
Параметр Endianness формата : Big
Идентификатор кодека : A_AC3
Продолжительность : 1 ч. 26 м.
Вид битрейта : Постоянный
Битрейт : 192 Кбит/сек
Каналы : 2 канала
Расположение каналов : Front: L R
Частота : 48,0 КГц
Частота кадров : 31,250 кадров/сек (1536 spf)
Метод сжатия : С потерями
Размер потока : 119 Мбайт (3%)
Заголовок : DUB (Варус Видео)
Язык : Russian
Default : Да
Forced : Нет

Аудио #2
Идентификатор : 3
Формат : AC-3
Формат/Информация : Audio Coding 3
Профиль формата : Dolby Digital
Расширение режима : CM (complete main)
Параметр Endianness формата : Big
Идентификатор кодека : A_AC3
Продолжительность : 1 ч. 26 м.
Вид битрейта : Постоянный
Битрейт : 192 Кбит/сек
Каналы : 2 канала
Расположение каналов : Front: L R
Частота : 48,0 КГц
Частота кадров : 31,250 кадров/сек (1536 spf)
Метод сжатия : С потерями
Размер потока : 119 Мбайт (3%)
Заголовок : MVO (R5)
Язык : Russian
Default : Нет
Forced : Нет

Аудио #3
Идентификатор : 4
Формат : AC-3
Формат/Информация : Audio Coding 3
Расширение режима : CM (complete main)
Параметр Endianness формата : Big
Идентификатор кодека : A_AC3
Продолжительность : 1 ч. 26 м.
Вид битрейта : Постоянный
Битрейт : 192 Кбит/сек
Каналы : 2 канала
Расположение каналов : Front: L R
Частота : 48,0 КГц
Частота кадров : 31,250 кадров/сек (1536 spf)
Метод сжатия : С потерями
Размер потока : 119 Мбайт (3%)
Заголовок : AVO (Андрей Гаврилов)
Язык : Russian
Default : Нет
Forced : Нет

Общее
Полное имя : D:\Video\Слепая ярость.1989.BDRip.720p\Слепая ярость.1989.MVO.rus.1 канал.ac3
Формат : AC-3
Формат/Информация : Audio Coding 3
Размер файла : 119 Мбайт
Продолжительность : 1 ч. 26 м.
Режим общего битрейта : Постоянный
Общий поток : 192 Кбит/сек

Аудио
Формат : AC-3
Формат/Информация : Audio Coding 3
Профиль формата : Dolby Digital
Расширение режима : CM (complete main)
Параметр Endianness формата : Big
Продолжительность : 1 ч. 26 м.
Вид битрейта : Постоянный
Битрейт : 192 Кбит/сек
Каналы : 2 канала
Расположение каналов : Front: L R
Частота : 48,0 КГц
Частота кадров : 31,250 кадров/сек (1536 spf)
Метод сжатия : С потерями
Размер потока : 119 Мбайт (100%)

Общее
Полное имя : D:\Video\Слепая ярость.1989.BDRip.720p\Слепая ярость.1989.MVO.rus.CTC.ac3
Формат : AC-3
Формат/Информация : Audio Coding 3
Размер файла : 119 Мбайт
Продолжительность : 1 ч. 26 м.
Режим общего битрейта : Постоянный
Общий поток : 192 Кбит/сек

Аудио
Формат : AC-3
Формат/Информация : Audio Coding 3
Профиль формата : Dolby Digital
Расширение режима : CM (complete main)
Параметр Endianness формата : Big
Продолжительность : 1 ч. 26 м.
Вид битрейта : Постоянный
Битрейт : 192 Кбит/сек
Каналы : 2 канала
Расположение каналов : Front: L R
Частота : 48,0 КГц
Частота кадров : 31,250 кадров/сек (1536 spf)
Метод сжатия : С потерями
Размер потока : 119 Мбайт (100%)

Общее
Полное имя : D:\Video\Слепая ярость.1989.BDRip.720p\Слепая ярость.1989.MVO.rus.Видеосервис.ac3
Формат : AC-3
Формат/Информация : Audio Coding 3
Размер файла : 119 Мбайт
Продолжительность : 1 ч. 26 м.
Режим общего битрейта : Постоянный
Общий поток : 192 Кбит/сек

Аудио
Формат : AC-3
Формат/Информация : Audio Coding 3
Профиль формата : Dolby Digital
Расширение режима : CM (complete main)
Параметр Endianness формата : Big
Продолжительность : 1 ч. 26 м.
Вид битрейта : Постоянный
Битрейт : 192 Кбит/сек
Каналы : 2 канала
Расположение каналов : Front: L R
Частота : 48,0 КГц
Частота кадров : 31,250 кадров/сек (1536 spf)
Метод сжатия : С потерями
Размер потока : 119 Мбайт (100%)

Общее
Полное имя : D:\Video\Слепая ярость.1989.BDRip.720p\Слепая ярость.1989.Original.eng.ac3
Формат : AC-3
Формат/Информация : Audio Coding 3
Размер файла : 119 Мбайт
Продолжительность : 1 ч. 26 м.
Режим общего битрейта : Постоянный
Общий поток : 192 Кбит/сек

Аудио
Формат : AC-3
Формат/Информация : Audio Coding 3
Расширение режима : CM (complete main)
Параметр Endianness формата : Big
Продолжительность : 1 ч. 26 м.
Вид битрейта : Постоянный
Битрейт : 192 Кбит/сек
Каналы : 2 канала
Расположение каналов : Front: L R
Частота : 48,0 КГц
Частота кадров : 31,250 кадров/сек (1536 spf)
Метод сжатия : С потерями
Размер потока : 119 Мбайт (100%)

Общее
Полное имя : D:\Video\Слепая ярость.1989.BDRip.720p\Слепая ярость.1989.rus.srt
Размер файла : 87,0 Кбайт
pb.wtf



Скачать Слепая ярость через торрент http://s017.radikal.ru/i420/1603/5a/9d75e9131b13.jpg Скачать фильм Слепая ярость через торрент бесплантно в хорошем качестве Описание: На первый взгляд он беспомощный слепой, один из тысяч несчастных бродяг. Но не стоит слишком полагаться на собственное зрение. ... 9.8 10 8
Info! Золотая раздача, скачанное не засчитывается.
Торрент: Зарегистрирован [2016-03-16 07:41] · скачан: 51 раз
Статус: √ проверено
Размер: 4.31 GB
Как cкачать? Как скачать Слепая ярость через торрент | qTorrent

% Раздел Тема Автор DL S | L
Фильмы [HD 720p, 1080p] (Хороший звук DUB, MVO) [ 11.18 GB ] Слепая ярость / Blind Fury [1989 BDRip 1080p by msltel] DUB 4 x MVO 2 x AVO msltel Скачать
1 | 0

28-11-2019 20:33  

Отключить всю рекламу на сайте

16-03-2016 16:03 Слепая ярость Скачать торрент  

Шедеврально pb.wtf



    Дорогой пользователь! Огромная просьба, поблагодарите релизера, оцените раздачу и оставьте свои комментарий, если Вы скачали Слепая ярость через торрент бесплатно! Внесите свою лепту в развитие PiratBit!
    Комментировать посты могут только пользователи прошедшие не сложную регистрацию
    Показать сообщения:    

    Слепая ярость через торрент
    Скачать бесплатно Слепая ярость
    Слепая ярость скачать торрент
    Слепая ярость смотреть онлайн
    Cкачать фильм Слепая ярость бесплатно
    Слепая ярость скачать торрент в хорошем качестве
    Слепая ярость смотреть онлайн бесплатно в хорошем качестве


    Вы не можете начинать темы
    Вы не можете отвечать на сообщения
    Вы не можете редактировать свои сообщения
    Вы не можете удалять свои сообщения
    Вы не можете голосовать в опросах
    Вы не можете прикреплять файлы к сообщениям
    Вы можете скачивать файлы