новый адрес
Мега распродажа FORZA HORIZON 4 ULTIMATE+ВСЕ DLC+ОНЛАЙН всего за 499р. 349 руб. (супер цена). Внимание количество ограничено!!!

iTunes

1+1

iTunes

мы

iTunes

1

iTunes

Чернобыль

iTunes

Ральф против интернета

Лицензия

ПШазам

Лицензия

Игра престолов

Лицензия

30
pack

ВАЖНО

!!Акция!!

Alien_RageХит недели

RePack

Resident Evil 21

ИГРА 18+

pack

RePack

Metro:Exodus

!!Акция!!

Alien_Rage

RePack

fifa19

RePack

Assassins Creed: Odyssey

RePack

NEED FOR SPEED™ PAYBACK

3 сезон

9 сезон

Бесстыжие 9 сезон

Все сериалы

все сериалы на PB.wtf

RePack

FAR CRY 5
Ребята, катастрофически не хватает 1900р. для оплаты серверов за Октябрь (всвязи с блокировками трафик упал в 3 раза), 1-2р., выручайте.
  

Весна в Москве (Иосиф Хейфиц, Надежда Кошеверова) [1953, СССР, драма, DVDRip от AVP Studio] pb.wtf

Весна в Москве через торрент pb.wtf

Размер: 743 MB | Добавлен: 3 года 8 мес. назад | Торрент скачан:15 раз
Скачать  

16-03-2016 09:09 Весна в Москве Скачать торрент  

Весна в Москве
Страна: СССР
Производство: Ленфильм

Жанр: драма
Год выпуска: 1953
Продолжительность: 01:24:24

Перевод: Не требуется
Cубтитры: нет
Оригинальная аудиодорожка: русский

Режиссер: Иосиф Хейфиц, Надежда Кошеверова

В ролях:
Галина Короткевич, Владимир Петров, Юрий Бубликов, Анатолий Кузнецов (II), Владимир Таскин, Георгий Анчиц, Лев Шостак, Людмила Пономарёва, Анатолий Абрамов, Александра Тришко, Николай Лукинов, Сабина Суйковская...
Полный список актёров

Описание:
Фильм-спектакль по одноименной пьесе Виктора Гусева.
Постановка Ленинградского Нового театра. Режиссер и художник спектакля - Николай Акимов. Действие пьесы, написанной в 1941 году, перенесено в начало пятидесятых годов.
Молодой историк Надежда Коврова, блистательно завершив первую работу, отвернувшись от друзей, сразу же пишет следующую. Ее постигает неудача. Тяжело пережив свое поражение, героиня находит поддержку у коллектива.

Источник: DVD9 R5
Качество видео: DVDRip
Формат видео: AVI

Видео: 576x432 (4:3), 25 fps, XviD ~ 876 kbps avg, 0.141 bit/pixel
Аудио: 48 kHz, MP3 2.0, 128 kbps

Раздача от:
Общее
Полное имя : Vesna.v.Moskve.1953.DVDRip-745_[New-team]_by_AVP_Studio.avi
Формат : AVI
Формат/Информация : Audio Video Interleave
Размер файла : 743 Мбайт
Продолжительность : 1 ч. 42 м.
Общий поток : 1014 Кбит/сек
Программа кодирования : VirtualDubModRus 1.5.10.2 (build 2542/release)
Библиотека кодирования : VirtualDubMod build 2542/release

Видео
Идентификатор : 0
Формат : MPEG-4 Visual
Профиль формата : Advanced Simple@L5
Параметр BVOP формата : 1
Параметр QPel формата : Нет
Параметр GMC формата : Без точки перехода
Параметр матрицы формата : Выборочная
Идентификатор кодека : XVID
Идентификатор кодека/Подсказка : XviD
Продолжительность : 1 ч. 42 м.
Битрейт : 876 Кбит/сек
Ширина : 576 пикселей
Высота : 432 пикселя
Соотношение сторон : 4:3
Частота кадров : 25,000 кадров/сек
Цветовое пространство : YUV
Субдискретизация насыщенности : 4:2:0
Битовая глубина : 8 бит
Тип развёртки : Прогрессивная
Метод сжатия : С потерями
Бит/(Пиксели*Кадры) : 0.141
Размер потока : 642 Мбайт (86%)
Библиотека кодирования : XviD 1.2.1 (UTC 2008-12-04)

Аудио
Идентификатор : 1
Формат : MPEG Audio
Версия формата : Version 1
Профиль формата : Layer 3
Идентификатор кодека : 55
Идентификатор кодека/Подсказка : MP3
Продолжительность : 1 ч. 42 м.
Вид битрейта : Постоянный
Битрейт : 128 Кбит/сек
Каналы : 2 канала
Частота : 48,0 КГц
Метод сжатия : С потерями
Размер потока : 93,7 Мбайт (13%)
Выравнивание : Соединение по промежуткам
Продолжительность промежутка : 40 мс. (1,00 видеокадр)
Время предзагрузки промежутка : 504 мс
pb.wtf



Скачать Весна в Москве через торрент http://s019.radikal.ru/i623/1603/d8/59dec9282816.png Скачать фильм Весна в Москве через торрент бесплантно в хорошем качестве Описание:Фильм-спектакль по одноименной пьесе Виктора Гусева.Постановка Ленинградского Нового театра. Режиссер и художник спектакля - ... 5 10 1
Info! Золотая раздача, скачанное не засчитывается.
Торрент: Зарегистрирован [2016-03-16 09:09] · скачан: 15 раз
Статус: √ проверено
Размер: 743 MB
Как cкачать? Как скачать Весна в Москве через торрент | qTorrent

% Раздел Тема Автор DL S | L
Кино СССР [ 1.08 GB ] Весна в Москве [1953 СССР DVDRip-AVC от AVP Studio] AVP Studio Скачать
1 | 0
Кино СССР [ 1.08 GB ] Весна в Москве [1953 СССР DVDRip от AVP Studio] AVP Studio Скачать
1 | 0


>> Регистрируемся здесь <<






Отзывы и комментарии о схеме читаем и пишем здесь: ---> Отзывы и комментарии о схеме

Новые благодарочки в телеграм довольных пользователей:
скриншот   скриншот   скриншот   скриншот   скриншот
    Дорогой пользователь! Огромная просьба, поблагодарите релизера, оцените раздачу и оставьте свои комментарий, если Вы скачали Весна в Москве через торрент бесплатно! Внесите свою лепту в развитие PiratBit!
    Комментировать посты могут только пользователи прошедшие не сложную регистрацию
    Показать сообщения:    

    Весна в Москве через торрент
    Скачать бесплатно Весна в Москве
    Весна в Москве скачать торрент
    Весна в Москве смотреть онлайн
    Cкачать фильм Весна в Москве бесплатно
    Весна в Москве скачать торрент в хорошем качестве
    Весна в Москве смотреть онлайн бесплатно в хорошем качестве


    Вы не можете начинать темы
    Вы не можете отвечать на сообщения
    Вы не можете редактировать свои сообщения
    Вы не можете удалять свои сообщения
    Вы не можете голосовать в опросах
    Вы не можете прикреплять файлы к сообщениям
    Вы можете скачивать файлы