новый адрес
Мега распродажа FORZA HORIZON 4 ULTIMATE+ВСЕ DLC+ОНЛАЙН всего за 499р. 349 руб. (супер цена). Внимание количество ограничено!!!

iTunes

1+1

iTunes

мы

iTunes

1

iTunes

Чернобыль

iTunes

Ральф против интернета

Лицензия

ПШазам

Лицензия

Игра престолов

Лицензия

30
pack

ВАЖНО

!!Акция!!

Alien_RageХит недели

RePack

Resident Evil 21

ИГРА 18+

pack

RePack

Metro:Exodus

!!Акция!!

Alien_Rage

RePack

fifa19

RePack

Assassins Creed: Odyssey

RePack

NEED FOR SPEED™ PAYBACK

3 сезон

9 сезон

Бесстыжие 9 сезон

Все сериалы

все сериалы на PB.wtf

RePack

FAR CRY 5
Ребята, катастрофически не хватает 1900р. для оплаты серверов за Октябрь (всвязи с блокировками трафик упал в 3 раза), 1-2р., выручайте.
  

Весна в Москве (Иосиф Хейфиц, Надежда Кошеверова) [1953, СССР, драма, DVDRip-AVC от AVP Studio] pb.wtf

Весна в Москве через торрент pb.wtf

Размер: 1.08 GB | Добавлен: 3 года 8 мес. назад | Торрент скачан:16 раз
Скачать  

16-03-2016 09:09 Весна в Москве Скачать торрент  

Весна в Москве
Страна: СССР
Производство: Ленфильм

Жанр: драма
Год выпуска: 1953
Продолжительность: 01:24:24

Перевод: Не требуется
Cубтитры: нет
Оригинальная аудиодорожка: русский

Режиссер: Иосиф Хейфиц, Надежда Кошеверова

В ролях:
Галина Короткевич, Владимир Петров, Юрий Бубликов, Анатолий Кузнецов (II), Владимир Таскин, Георгий Анчиц, Лев Шостак, Людмила Пономарёва, Анатолий Абрамов, Александра Тришко, Николай Лукинов, Сабина Суйковская...
Полный список актёров

Описание:
Фильм-спектакль по одноименной пьесе Виктора Гусева.
Постановка Ленинградского Нового театра. Режиссер и художник спектакля - Николай Акимов. Действие пьесы, написанной в 1941 году, перенесено в начало пятидесятых годов.
Молодой историк Надежда Коврова, блистательно завершив первую работу, отвернувшись от друзей, сразу же пишет следующую. Ее постигает неудача. Тяжело пережив свое поражение, героиня находит поддержку у коллектива.

Источник: DVD9 R5
Качество видео: DVDRip-AVC
Формат видео: MKV

Видео: 656->720x540 (4:3), 25 fps, H264 ~ 1316 kbps avg, 0.149 bit/pixel
Аудио: 48 kHz, Dolby Digital AC3 2.0, 192 kbps

Раздача от:
Общее
Полное имя : Vesna.v.Moskve.1953.DVDRip-AVC_[New-team]_by_AVP_Studio.mkv
Формат : Matroska
Версия формата : Version 4 / Version 2
Размер файла : 1,08 Гбайт
Продолжительность : 1 ч. 42 м.
Общий поток : 1510 Кбит/сек
Дата кодирования : UTC 2016-03-16 07:43:47
Программа кодирования : mkvmerge v8.9.0 ('Father Daughter') 64bit
Библиотека кодирования : libebml v1.3.3 + libmatroska v1.4.4

Видео
Идентификатор : 1
Формат : AVC
Формат/Информация : Advanced Video Codec
Профиль формата : High@L4.1
Параметр CABAC формата : Да
Параметр ReFrames формата : 10 кадров
Идентификатор кодека : V_MPEG4/ISO/AVC
Продолжительность : 1 ч. 42 м.
Битрейт : 1316 Кбит/сек
Ширина : 656 пикселей
Высота : 540 пикселей
Соотношение сторон : 4:3
Режим частоты кадров : Постоянный
Частота кадров : 25,000 кадров/сек
Цветовое пространство : YUV
Субдискретизация насыщенности : 4:2:0
Битовая глубина : 8 бит
Тип развёртки : Прогрессивная
Бит/(Пиксели*Кадры) : 0.149
Размер потока : 964 Мбайт (87%)
Default : Да
Forced : Нет

Аудио
Идентификатор : 2
Формат : AC-3
Формат/Информация : Audio Coding 3
Расширение режима : CM (complete main)
Параметр Endianness формата : Big
Идентификатор кодека : A_AC3
Продолжительность : 1 ч. 42 м.
Вид битрейта : Постоянный
Битрейт : 192 Кбит/сек
Каналы : 2 канала
Расположение каналов : Front: L R
Частота : 48,0 КГц
Частота кадров : 31,250 кадров/сек (1536 spf)
Метод сжатия : С потерями
Задержка видео : 8 мс.
Размер потока : 141 Мбайт (13%)
Default : Да
Forced : Нет
pb.wtf



Скачать Весна в Москве через торрент http://s019.radikal.ru/i623/1603/d8/59dec9282816.png Скачать фильм Весна в Москве через торрент бесплантно в хорошем качестве Описание:Фильм-спектакль по одноименной пьесе Виктора Гусева.Постановка Ленинградского Нового театра. Режиссер и художник спектакля - ... 10 10 1
Info! Золотая раздача, скачанное не засчитывается.
Торрент: Зарегистрирован [2016-03-16 09:09] · скачан: 16 раз
Статус: √ проверено
Размер: 1.08 GB
Как cкачать? Как скачать Весна в Москве через торрент | qTorrent

% Раздел Тема Автор DL S | L
Кино СССР [ 743 MB ] Весна в Москве [1953 СССР DVDRip от AVP Studio] AVP Studio Скачать
1 | 0
Кино СССР [ 1.08 GB ] Весна в Москве [1953 СССР DVDRip от AVP Studio] AVP Studio Скачать
1 | 0


>> Регистрируемся здесь <<






Отзывы и комментарии о схеме читаем и пишем здесь: ---> Отзывы и комментарии о схеме

Новые благодарочки в телеграм довольных пользователей:
скриншот   скриншот   скриншот   скриншот   скриншот
    Дорогой пользователь! Огромная просьба, поблагодарите релизера, оцените раздачу и оставьте свои комментарий, если Вы скачали Весна в Москве через торрент бесплатно! Внесите свою лепту в развитие PiratBit!
    Комментировать посты могут только пользователи прошедшие не сложную регистрацию
    Показать сообщения:    

    Весна в Москве через торрент
    Скачать бесплатно Весна в Москве
    Весна в Москве скачать торрент
    Весна в Москве смотреть онлайн
    Cкачать фильм Весна в Москве бесплатно
    Весна в Москве скачать торрент в хорошем качестве
    Весна в Москве смотреть онлайн бесплатно в хорошем качестве


    Вы не можете начинать темы
    Вы не можете отвечать на сообщения
    Вы не можете редактировать свои сообщения
    Вы не можете удалять свои сообщения
    Вы не можете голосовать в опросах
    Вы не можете прикреплять файлы к сообщениям
    Вы можете скачивать файлы