Ссылка на приватное зеркало нашего сайта всего за 1$. Внимание количество ограничено!!!

2 сезон

iTunes

1 сезон

1

iTunes

iTunes

iTunes

1 сезон

RePack

30

ИГРА 18+

pack

ВАЖНО

!!Акция!!

Alien_RageХит недели

RePack

MK11
pack

Забери бонус

RePack

jed

!!Акция!!

Alien_Rage

RePack

fifa19

RePack

Assassins Creed: Odyssey

RePack

NEED FOR SPEED™ PAYBACK

4 сезон

9 сезон

Бесстыжие 9 сезон

Все сериалы

все сериалы на PB.wtf

RePack

FAR CRY 5
  

На гребне волны / Point Break (Эриксон Кор / Ericson Core) [2015, боевик, триллер, криминал, спорт, BDRip 1080p] DUB Лицензия pb.wtf

На гребне волны через торрент pb.wtf

Размер: 13.1 GB | Добавлен: 4 года 7 мес. назад | Торрент скачан:674 раза
Скачать  

16-03-2016 09:51 На гребне волны Скачать торрент  

«Найди свой предел»
Год выпуска » 2015
Страна » США, Германия, Китай
Жанр » Боевик, триллер, криминал, спорт
Продолжительность » 01:53:50
Перевод » Профессиональный (дублированный) Blu-ray EUR
Субтитры » Russian, English

В ролях
» Люк Брейси, Эдгар Рамирес, Рэй Уинстон, Тереза Палмер, Матиас Варела, Клеменс Шик, Тобиас Зантельман, Макс Тириот, Делрой Линдо, Николай Кински

Режиссёр
» Эриксон Кор

» Джонни - молодой агент ФБР, специализирующийся на работе под прикрытием. Он не раз выходил из самых сложных ситуаций, всегда доделывая свою работу до конца. Его очередным заданием становится проникновение в банду воров. Однако эти люди не обычные грабители: их главным отличием от остальных является увлечение экстремальными видами спорта. Свои умения они используют при каждом новом ограблении, и стать частью их команды очень непросто. Чтобы войти в банду и остановить преступников, Джонни придется доказать, что он такой же как они, а для этого ему не раз предстоит рискнуть собственной жизнью...

• Качество » BDRip 1080p
• Формат » mkv
• Видео кодек » AVC
• Аудио кодек » AC3, DTS
• Примечание: » Сохранены оригинальные главы как на Blu-ray.
• Видео » 1920x800 at 23.976 fps, x264@L4.1, ~14000 kbps avg
• Аудио » Русский (48 kHz, AC3, 3/2 (L,C,R,l,r) + LFE ch, ~640.00 kbps avg)
• Аудио » Английский (48 kHz, DTS, 3/2 (L,C,R,l,r) + LFE ch, ~1509.00 kbps avg)


Дата мировой премьеры:10 ноября 2015

Бюджет:$105 000 000

Сборы в США:$28 782 481

Сборы в России: $5 049 168

Сборы в мире:+ $102 556 009 = $131 338 490
Дата мировой премьеры: 1 декабря 2015
Дата российской премьеры: 24 декабря 2015, «Каро-Премьер»
Общее
Уникальный идентификатор : 182861996962592170415937598307639151107 (0x8991F087455AE0AC98F44B1AC632CA03)
Полное имя : Point.Break.2015.BDRip.1080p.BLUEBIRD.mkv
Формат : Matroska
Версия формата : Version 2
Размер файла : 13,1 Гбайт
Продолжительность : 1 ч. 53 м.
Общий поток : 16,5 Мбит/сек
Дата кодирования : UTC 2016-03-12 17:24:40
Программа кодирования : mkvmerge v7.9.0 ('Birds') 64bit
Библиотека кодирования : libebml v1.3.1 + libmatroska v1.4.2

Видео
Идентификатор : 1
Формат : AVC
Формат/Информация : Advanced Video Codec
Профиль формата : High@L4.1
Параметр CABAC формата : Да
Параметр ReFrames формата : 4 кадра
Идентификатор кодека : V_MPEG4/ISO/AVC
Продолжительность : 1 ч. 53 м.
Битрейт : 14,0 Мбит/сек
Ширина : 1920 пикселей
Высота : 800 пикселей
Соотношение сторон : 2,40:1
Режим частоты кадров : Постоянный
Частота кадров : 23,976 кадра/сек
Цветовое пространство : YUV
Субдискретизация насыщенности : 4:2:0
Битовая глубина : 8 бит
Тип развёртки : Прогрессивная
Бит/(Пиксели*Кадры) : 0.380
Размер потока : 11,1 Гбайт (85%)
Библиотека кодирования : x264 core 142 r2431+42 c69a006 tMod [8-bit@4:2:0 X86_64]
Настройки программы : cabac=1 / ref=4 / deblock=1:-3:-3 / analyse=0x3:0x113 / me=umh / subme=11 / psy=1 / fade_compensate=0.00 / psy_rd=1.00:0.05 / mixed_ref=1 / me_range=48 / chroma_me=1 / trellis=2 / 8x8dct=1 / cqm=0 / deadzone=21,11 / fast_pskip=0 / chroma_qp_offset=-2 / threads=12 / lookahead_threads=2 / sliced_threads=0 / nr=0 / decimate=1 / interlaced=0 / bluray_compat=0 / constrained_intra=0 / fgo=0 / bframes=8 / b_pyramid=2 / b_adapt=2 / b_bias=0 / direct=3 / weightb=1 / open_gop=0 / weightp=2 / keyint=250 / keyint_min=23 / scenecut=40 / intra_refresh=0 / rc_lookahead=40 / rc=crf / mbtree=0 / crf=18.0000 / qcomp=0.60 / qpmin=0:0:0 / qpmax=69:69:69 / qpstep=4 / vbv_maxrate=50000 / vbv_bufsize=45000 / crf_max=0.0 / nal_hrd=none / filler=0 / ip_ratio=1.40 / pb_ratio=1.30 / aq=3:1.00 / aq-sensitivity=10.00 / aq-factor=1.00:1.00:1.00 / aq2=0 / aq3=0
Язык : English
Default : Да
Forced : Нет
Цветовой диапазон : Limited
Коэффициенты матрицы : BT.709

Аудио #1
Идентификатор : 2
Формат : AC-3
Формат/Информация : Audio Coding 3
Расширение режима : CM (complete main)
Параметр Endianness формата : Big
Идентификатор кодека : A_AC3
Продолжительность : 1 ч. 53 м.
Вид битрейта : Постоянный
Битрейт : 640 Кбит/сек
Каналы : 6 каналов
Расположение каналов : Front: L C R, Side: L R, LFE
Частота : 48,0 КГц
Метод сжатия : С потерями
Размер потока : 521 Мбайт (4%)
Язык : Russian
Default : Да
Forced : Нет

Аудио #2
Идентификатор : 3
Формат : DTS
Формат/Информация : Digital Theater Systems
Режим : 16
Параметр Endianness формата : Big
Идентификатор кодека : A_DTS
Продолжительность : 1 ч. 53 м.
Вид битрейта : Постоянный
Битрейт : 1509 Кбит/сек
Каналы : 6 каналов
Расположение каналов : Front: L C R, Side: L R, LFE
Частота : 48,0 КГц
Битовая глубина : 24 бит
Метод сжатия : С потерями
Размер потока : 1,20 Гбайт (9%)
Язык : English
Default : Нет
Forced : Нет

Текст #1
Идентификатор : 4
Формат : UTF-8
Идентификатор кодека : S_TEXT/UTF8
Идентификатор кодека/Информация : UTF-8 Plain Text
Язык : Russian
Default : Да
Forced : Нет

Текст #2
Идентификатор : 5
Формат : UTF-8
Идентификатор кодека : S_TEXT/UTF8
Идентификатор кодека/Информация : UTF-8 Plain Text
Язык : Russian
Default : Нет
Forced : Нет

Текст #3
Идентификатор : 6
Формат : UTF-8
Идентификатор кодека : S_TEXT/UTF8
Идентификатор кодека/Информация : UTF-8 Plain Text
Заголовок : Full
Язык : English
Default : Нет
Forced : Нет

Текст #4
Идентификатор : 7
Формат : UTF-8
Идентификатор кодека : S_TEXT/UTF8
Идентификатор кодека/Информация : UTF-8 Plain Text
Заголовок : SDH
Язык : English
Default : Нет
Forced : Нет

Меню
00:00:00.000 : en:Chapter 1
00:10:11.818 : en:Chapter 2
00:21:05.137 : en:Chapter 3
00:29:20.924 : en:Chapter 4
00:42:44.893 : en:Chapter 5
00:50:05.793 : en:Chapter 6
01:03:19.461 : en:Chapter 7
01:12:43.942 : en:Chapter 8
01:20:40.417 : en:Chapter 9
01:27:14.520 : en:Chapter 10
01:32:44.350 : en:Chapter 11
01:39:02.603 : en:Chapter 12
скриншот   скриншот   скриншот   скриншот   скриншот   скриншот  
Релиз от : pb.wtf



Скачать На гребне волны через торрент http://pic1.kartinco.top/images/10/vy2lg.jpg Скачать фильм На гребне волны через торрент бесплантно в хорошем качестве В ролях » Люк Брейси, Эдгар Рамирес, Рэй Уинстон, Тереза Палмер, Матиас Варела, Клеменс Шик, Тобиас Зантельман, Макс Тириот, Делрой Линдо, ... 9.8 10 23
Info! Золотая раздача, скачанное не засчитывается.
Торрент: Зарегистрирован [2016-03-16 09:51] · скачан: 674 раз
Статус: √ проверено
Размер: 13.1 GB
Как cкачать? Как скачать На гребне волны через торрент | qTorrent

% Раздел Тема Автор DL S | L
Ultra HD (UHD: 2K, 4K, 8K) — видео сверхвысокой чёткости [ 56.24 GB ] На гребне волны / Point Break [2015 UHD BDRemux 2160p] DUB [] +AVO [Ю.Живов] bober100 Скачать
1 | 0
Фильмы (WEB-DL 720p, 1080p) [ 10.6 GB ] На гребне волны / Point Break [2015 WEB-DL 1080p] DUB + AVO [] [Open Matte] sheker187 Скачать
1 | 0
Фильмы 2015 [DVDrip, WEB-DLRip, HDrip] [ 749 MB ] На гребне волны / Point Break [2015 Германия Китай HDRip by _Один_777] Dub () Один 777 Скачать
1 | 0
Фильмы [HD 720p, 1080p] (Хороший звук DUB, MVO) [ 7.26 GB ] На гребне волны / Point Break [2015 BDRip 720p] DUB potroks Скачать
1 | 0
Фильмы 2015 [DVDrip, WEB-DLRip, HDrip] [ 1.46 GB ] На гребне волны / Point Break [2015 BDRip] DUB Twi7ter Скачать
1 | 0
Фильмы 2015 [DVDrip, WEB-DLRip, HDrip] [ 2.91 GB ] На гребне волны / Point Break [2015 BDRip-AVC] DUB potroks Скачать
1 | 0
Фильмы 2015 [DVDrip, WEB-DLRip, HDrip] [ 1.46 GB ] На гребне волны / Point Break [2015 BDRip-AVC] DUB potroks Скачать
1 | 0

28-11-2019 20:33  

Отключить всю рекламу на сайте

18-03-2016 10:20 На гребне волны Скачать торрент  

дешёвая пародия.pb.wtf



20-03-2016 12:50 На гребне волны Скачать торрент  

sanaga, видимо фильм ты так и не посмотрелpb.wtf



20-03-2016 13:13 На гребне волны Скачать торрент  

Глянем, спс pb.wtf



23-03-2016 18:41 На гребне волны Скачать торрент  

Задумка возможно была очень выразительной,но в итоге мы видим набор трюков и болтовни, не несущей в себе смысловой нагрузки. В итоге фильм не оправдал ожиданий,к сожалению 6\10 pb.wtf



    Дорогой пользователь! Огромная просьба, поблагодарите релизера, оцените раздачу и оставьте свои комментарий, если Вы скачали На гребне волны через торрент бесплатно! Внесите свою лепту в развитие PiratBit!
    Комментировать посты могут только пользователи прошедшие не сложную регистрацию
    Показать сообщения:    

    На гребне волны через торрент
    Скачать бесплатно На гребне волны
    На гребне волны скачать торрент
    На гребне волны смотреть онлайн
    Cкачать фильм На гребне волны бесплатно
    На гребне волны скачать торрент в хорошем качестве
    На гребне волны смотреть онлайн бесплатно в хорошем качестве


    Вы не можете начинать темы
    Вы не можете отвечать на сообщения
    Вы не можете редактировать свои сообщения
    Вы не можете удалять свои сообщения
    Вы не можете голосовать в опросах
    Вы не можете прикреплять файлы к сообщениям
    Вы можете скачивать файлы