Ссылка на приватное зеркало нашего сайта всего за 1$. Внимание количество ограничено!!!

2 сезон

iTunes

1 сезон

1

iTunes

iTunes

iTunes

1 сезон

RePack

30

ИГРА 18+

pack

ВАЖНО

!!Акция!!

Alien_RageХит недели

RePack

MK11
pack

Забери бонус

RePack

jed

!!Акция!!

Alien_Rage

RePack

fifa19

RePack

Assassins Creed: Odyssey

RePack

NEED FOR SPEED™ PAYBACK

4 сезон

9 сезон

Бесстыжие 9 сезон

Все сериалы

все сериалы на PB.wtf

RePack

FAR CRY 5
  

Всё могу / Absolutely Anything (Терри Джонс) [2015 г., Фантастика, комедия, BDRip 1080p] DUB [iTunes] pb.wtf

Всё могу через торрент pb.wtf

Размер: 6.79 GB | Добавлен: 4 года 7 мес. назад | Торрент скачан:54 раза
Скачать  

16-03-2016 21:08 Всё могу Скачать торрент  

«Супер сила и никакой ответственности»
Год выпуска » 2015
Страна » Великобритания, США
Жанр » Фантастика, комедия
Продолжительность » 01:25:30
Перевод » Дублированный [iTunes]
Субтитры » Отсутствуют

В ролях
» Кейт Бекинсейл, Робин Уильямс, Саймон Пегг, Терри Гиллиам, Джон Клиз, Роб Риггл, Джоанна Ламли, Эдди Иззард, Эрик Айдл, Эмма Пирсон, Терри Джонс, Майкл Пэйлин, Райан Олива, Роберт Бафёрст, Санджив Бхаскар, Алекса Дейвис, Марк Престон, Джуди Лу, Мира Сайал, Брайан Кокс

Режиссёр
» Терри Джонс

» Злобные инопланетяне, собираясь уничтожить Землю, дают ей последний шанс — наделяют учителя-неудачника Ника Кларка способностью исполнять любые желания. Он бы мог положить конец войнам или воскресить величайшие умы всех времен. Вот только как заманчиво: стать президентом США, соблазнить неприступную красотку или заставить заговорить собственного пса. Спасет ли Ник Кларк землю или устроит полный беспредел?

• Качество » BDRip (1080p)
• Формат » MKV
• Видео кодек » AVC
• Аудио кодек » AC3,DTS
• Видео »MPEG-4 AVC, 1920x808, 23.976 fps, 10212 Kbps
• Аудио » Русский (AC-3 / 6 ch / 384 kbps / 48,0 КГц / 16 bit )
• Аудио » Английский (DTS / 6 ch / 768 kbps / 48,0 КГц / 16 bit)


Общее
Уникальный идентификатор : 188016549187820605007782652686149514840 (0x8D72AB930577E7F1A9B80361CC4E7658)
Полное имя : E:\Fse0.MaGu.2015.D.BDRip.1080p..mkv
Формат : Matroska
Версия формата : Version 4 / Version 2
Размер файла : 6,79 Гбайт
Продолжительность : 1 ч. 25 м.
Общий поток : 11,4 Мбит/сек
Дата кодирования : UTC 2016-03-15 08:33:53
Программа кодирования : mkvmerge v8.3.0 ('Over the Horizon') 32bit
Библиотека кодирования : libebml v1.3.1 + libmatroska v1.4.2
DURATION : 01:16:40.000000000
NUMBER_OF_FRAMES : 2
NUMBER_OF_BYTES : 208
_STATISTICS_WRITING_APP : mkvmerge v8.3.0 ('Over the Horizon') 32bit
_STATISTICS_WRITING_DATE_UTC : 2016-03-15 08:33:53
_STATISTICS_TAGS : BPS DURATION NUMBER_OF_FRAMES NUMBER_OF_BYTES

Видео
Идентификатор : 1
Формат : AVC
Формат/Информация : Advanced Video Codec
Профиль формата : High@L4.1
Параметр CABAC формата : Да
Параметр ReFrames формата : 5 кадров
Идентификатор кодека : V_MPEG4/ISO/AVC
Продолжительность : 1 ч. 25 м.
Битрейт : 10,2 Мбит/сек
Ширина : 1920 пикселей
Высота : 808 пикселей
Соотношение сторон : 2,40:1
Режим частоты кадров : Постоянный
Частота кадров : 23,976 кадра/сек
Цветовое пространство : YUV
Субдискретизация насыщенности : 4:2:0
Битовая глубина : 8 бит
Тип развёртки : Прогрессивная
Бит/(Пиксели*Кадры) : 0.275
Размер потока : 5,96 Гбайт (88%)
Заголовок : Fse0.MaGu.2015.D.BDRip.1080p.ELEKTRI4KA.uniongang.tv
Библиотека кодирования : x264 core 148 r2638 7599210
Настройки программы : cabac=1 / ref=5 / deblock=1:0:0 / analyse=0x3:0x133 / me=umh / subme=7 / psy=1 / psy_rd=1.00:0.00 / mixed_ref=1 / me_range=16 / chroma_me=1 / trellis=1 / 8x8dct=1 / cqm=0 / deadzone=21,11 / fast_pskip=0 / chroma_qp_offset=-2 / threads=12 / lookahead_threads=2 / sliced_threads=0 / nr=0 / decimate=1 / interlaced=0 / bluray_compat=0 / constrained_intra=0 / bframes=3 / b_pyramid=2 / b_adapt=1 / b_bias=0 / direct=1 / weightb=1 / open_gop=0 / weightp=2 / keyint=250 / keyint_min=23 / scenecut=40 / intra_refresh=0 / rc_lookahead=40 / rc=2pass / mbtree=1 / bitrate=10212 / ratetol=1.0 / qcomp=0.60 / qpmin=0 / qpmax=69 / qpstep=4 / cplxblur=20.0 / qblur=0.5 / ip_ratio=1.40 / aq=1:1.00
Язык : English
Default : Да
Forced : Нет
DURATION : 01:25:30.092000000
NUMBER_OF_FRAMES : 122999
NUMBER_OF_BYTES : 6547219049
_STATISTICS_WRITING_APP : mkvmerge v8.3.0 ('Over the Horizon') 32bit
_STATISTICS_WRITING_DATE_UTC : 2016-03-15 08:33:53
_STATISTICS_TAGS : BPS DURATION NUMBER_OF_FRAMES NUMBER_OF_BYTES

Аудио #1
Идентификатор : 2
Формат : AC-3
Формат/Информация : Audio Coding 3
Расширение режима : CM (complete main)
Параметр Endianness формата : Big
Идентификатор кодека : A_AC3
Продолжительность : 1 ч. 25 м.
Вид битрейта : Постоянный
Битрейт : 384 Кбит/сек
Каналы : 6 каналов
Расположение каналов : Front: L C R, Side: L R, LFE
Частота : 48,0 КГц
Битовая глубина : 16 бит
Метод сжатия : С потерями
Размер потока : 235 Мбайт (3%)
Язык : Russian
Default : Да
Forced : Нет

Аудио #2
Идентификатор : 3
Формат : DTS
Формат/Информация : Digital Theater Systems
Режим : 16
Параметр Endianness формата : Big
Идентификатор кодека : A_DTS
Продолжительность : 1 ч. 25 м.
Вид битрейта : Постоянный
Битрейт : 768 Кбит/сек
Каналы : 6 каналов
Расположение каналов : Front: L C R, Side: L R, LFE
Частота : 48,0 КГц
Битовая глубина : 24 бит
Метод сжатия : С потерями
Размер потока : 470 Мбайт (7%)
Язык : English
Default : Нет
Forced : Нет

Текст
Идентификатор : 4
Формат : UTF-8
Идентификатор кодека : S_TEXT/UTF8
Идентификатор кодека/Информация : UTF-8 Plain Text
Default : Нет
Forced : Нет

Меню
00:00:00.000 : en:00:00:00.000
00:03:10.941 : en:00:03:10.941
00:08:13.827 : en:00:08:13.827
00:14:41.631 : en:00:14:41.631
00:32:59.102 : en:00:32:59.102
00:40:15.580 : en:00:40:15.580
00:53:42.886 : en:00:53:42.886
01:02:15.815 : en:01:02:15.815
01:06:17.682 : en:01:06:17.682
01:11:51.098 : en:01:11:51.098
01:14:56.117 : en:01:14:56.117
01:21:25.547 : en:01:21:25.547

скриншот   скриншот   скриншот   скриншот   скриншот  
pb.wtf



Скачать Всё могу через торрент http://pic.kartinco.top/images/11/41dq9.jpg Скачать фильм Всё могу через торрент бесплантно в хорошем качестве В ролях » Кейт Бекинсейл, Робин Уильямс, Саймон Пегг, Терри Гиллиам, Джон Клиз, Роб Риггл, Джоанна Ламли, Эдди Иззард, Эрик Айдл, Эмма ... 9.8 10 4
Торрент: Зарегистрирован [2016-03-16 21:08] · скачан: 54 раз
Статус: T временная
Размер: 6.79 GB
Как cкачать? Как скачать Всё могу через торрент | qTorrent

% Раздел Тема Автор DL S | L
Фильмы 2015 [DVDrip, WEB-DLRip, HDrip] [ 1.42 GB ] Всё могу / Absolutely Anything [2015 BDRip-AVC] Dub potroks Скачать
1 | 0
R.G. Resident & PiratVoice - Фильмы, Видео [ 1.4 GB ] Всё могу / Absolutely Anything [2015 BDRip-AVC ] schultz Скачать
1 | 0
Фильмы 2015 [DVDrip, WEB-DLRip, HDrip] [ 1.42 GB ] Всё могу / Absolutely Anything [2015 BDRip] Dub Twi7ter Скачать
1 | 0
Фильмы [HD 720p, 1080p] (Хороший звук DUB, MVO) [ 4.53 GB ] Всё могу / Absolutely Anything [2015 BDRip 720p] $-DRON-$ Скачать
1 | 0
Фильмы 2015 [DVDrip, WEB-DLRip, HDrip] [ 2.14 GB ] Всё могу / Absolutely Anything [2015 BDRip-AVC] Dub potroks Скачать
1 | 0
T Фильмы (HD 720p, 1080p) (48-60 fps) [ 6.36 GB ] Всё могу / Absolutely Anything [2015 BDRip 720p by mimok [IPTV] 60fps mimok Скачать
1 | 0
Фильмы с украинским озвучиванием [ 1.46 GB ] Всё могу / Все як ти захочеш / Absolutely Anything [2015 BDRip] [Ukr MVO] [LINE] killermax2013 Скачать
1 | 0

28-11-2019 20:33  

Отключить всю рекламу на сайте

    Дорогой пользователь! Огромная просьба, поблагодарите релизера, оцените раздачу и оставьте свои комментарий, если Вы скачали Всё могу через торрент бесплатно! Внесите свою лепту в развитие PiratBit!
    Комментировать посты могут только пользователи прошедшие не сложную регистрацию
    Показать сообщения:    

    Всё могу через торрент
    Скачать бесплатно Всё могу
    Всё могу скачать торрент
    Всё могу смотреть онлайн
    Cкачать фильм Всё могу бесплатно
    Всё могу скачать торрент в хорошем качестве
    Всё могу смотреть онлайн бесплатно в хорошем качестве


    Вы не можете начинать темы
    Вы не можете отвечать на сообщения
    Вы не можете редактировать свои сообщения
    Вы не можете удалять свои сообщения
    Вы не можете голосовать в опросах
    Вы не можете прикреплять файлы к сообщениям
    Вы можете скачивать файлы