новый адрес
Ссылка на приватное зеркало всего за 1$. Внимание количество ограничено!!!

iTunes

1+1

iTunes

мы

iTunes

1

iTunes

Чернобыль

iTunes

Ральф против интернета

Лицензия

ПШазам

Лицензия

Оно 2

Лицензия

30
pack

Вам бонус

ВАЖНО

!!Акция!!

Alien_RageХит недели

RePack

Resident Evil 21

ИГРА 18+

pack

RePack

jed

!!Акция!!

Alien_Rage

RePack

fifa19

RePack

Assassins Creed: Odyssey

RePack

NEED FOR SPEED™ PAYBACK

3 сезон

9 сезон

Бесстыжие 9 сезон

Все сериалы

все сериалы на PB.wtf

RePack

FAR CRY 5
Ребята, катастрофически не хватает 1900р. для оплаты серверов за Октябрь (всвязи с блокировками трафик упал в 3 раза), 1-2р., выручайте.
  

Васса Железнова (Леонид Луков) [1953, СССР, драма, DVDRip от AVP Studio] pb.wtf

Васса Железнова через торрент pb.wtf

Размер: 746 MB | Добавлен: 3 года 8 мес. назад | Торрент скачан:15 раз
Скачать  

17-03-2016 07:12 Васса Железнова Скачать торрент  

Васса Железнова
Страна: СССР
Производство: К/ст им.Горького

Жанр: драма
Год выпуска: 1953
Продолжительность: 01:44:04

Перевод: Не требуется
Cубтитры: нет
Оригинальная аудиодорожка: русский

Режиссер: Леонид Луков

В ролях:
Вера Пашенная, Михаил Жаров, Николай Шамин, Валентина Евстратова, Екатерина Еланская, Елизавета Солодова, Варвара Обухова...
Полный список актёров

Описание:
Фильм-спектакль по одноименной пьесе М.Горького.
Постановка Малого театра СССР, режиссер спектакля — Константин Зубов.
Трагедия талантливой и сильной женщины, которая построила благополучие своей семьи на лжи и крови. И благополучие оказалось таким же лживым и призрачным.

Источник: DVD9 R5
Качество видео: DVDRip
Формат видео: AVI

Видео: 576x432 (4:3), 25 fps, XviD ~ 865 kbps avg, 0.139 bit/pixel
Аудио: 48 kHz, MP3 2.0, 128 kbps

Раздача от:
Общее
Полное имя : Vassa.Zheleznova.1953.DVDRip-745_[New-team]_by_AVP_Studio.avi
Формат : AVI
Формат/Информация : Audio Video Interleave
Размер файла : 746 Мбайт
Продолжительность : 1 ч. 44 м.
Общий поток : 1002 Кбит/сек
Программа кодирования : VirtualDubMod 1.5.10.3 | www.virtualdub-fr.org || (build 2550/release)
Библиотека кодирования : VirtualDubMod build 2550/release

Видео
Идентификатор : 0
Формат : MPEG-4 Visual
Профиль формата : Advanced Simple@L5
Параметр BVOP формата : 1
Параметр QPel формата : Нет
Параметр GMC формата : Без точки перехода
Параметр матрицы формата : Выборочная
Идентификатор кодека : XVID
Идентификатор кодека/Подсказка : XviD
Продолжительность : 1 ч. 44 м.
Битрейт : 865 Кбит/сек
Ширина : 576 пикселей
Высота : 432 пикселя
Соотношение сторон : 4:3
Частота кадров : 25,000 кадров/сек
Цветовое пространство : YUV
Субдискретизация насыщенности : 4:2:0
Битовая глубина : 8 бит
Тип развёртки : Прогрессивная
Метод сжатия : С потерями
Бит/(Пиксели*Кадры) : 0.139
Размер потока : 644 Мбайт (86%)
Библиотека кодирования : XviD 1.2.1 (UTC 2008-12-04)

Аудио
Идентификатор : 1
Формат : MPEG Audio
Версия формата : Version 1
Профиль формата : Layer 3
Идентификатор кодека : 55
Идентификатор кодека/Подсказка : MP3
Продолжительность : 1 ч. 44 м.
Вид битрейта : Постоянный
Битрейт : 128 Кбит/сек
Каналы : 2 канала
Частота : 48,0 КГц
Метод сжатия : С потерями
Размер потока : 95,3 Мбайт (13%)
Выравнивание : Соединение по промежуткам
Продолжительность промежутка : 40 мс. (1,00 видеокадр)
Время предзагрузки промежутка : 504 мс.
Библиотека кодирования : LAME3.99r
Настройки программы : -m s -V 4 -q 2 -lowpass 17 -b 128
pb.wtf



Скачать Васса Железнова через торрент http://s017.radikal.ru/i416/1603/bb/29c3a47071d2.png Скачать фильм Васса Железнова через торрент бесплантно в хорошем качестве Описание:Фильм-спектакль по одноименной пьесе М.Горького.Постановка Малого театра СССР, режиссер спектакля — Константин Зубов.Трагедия ... 10 10 1
Info! Золотая раздача, скачанное не засчитывается.
Торрент: Зарегистрирован [2016-03-17 07:12] · скачан: 15 раз
Статус: √ проверено
Размер: 746 MB
Как cкачать? Как скачать Васса Железнова через торрент | qTorrent

% Раздел Тема Автор DL S | L
Кино СССР [ 1.46 GB ] Васса Железнова [1953 СССР DVDRip-AVC от AVP Studio] AVP Studio Скачать
2 | 0
Кино СССР [ 1.46 GB ] Васса Железнова [1953 СССР DVDRip от AVP Studio] AVP Studio Скачать
1 | 0
    Дорогой пользователь! Огромная просьба, поблагодарите релизера, оцените раздачу и оставьте свои комментарий, если Вы скачали Васса Железнова через торрент бесплатно! Внесите свою лепту в развитие PiratBit!
    Комментировать посты могут только пользователи прошедшие не сложную регистрацию
    Показать сообщения:    

    Васса Железнова через торрент
    Скачать бесплатно Васса Железнова
    Васса Железнова скачать торрент
    Васса Железнова смотреть онлайн
    Cкачать фильм Васса Железнова бесплатно
    Васса Железнова скачать торрент в хорошем качестве
    Васса Железнова смотреть онлайн бесплатно в хорошем качестве


    Вы не можете начинать темы
    Вы не можете отвечать на сообщения
    Вы не можете редактировать свои сообщения
    Вы не можете удалять свои сообщения
    Вы не можете голосовать в опросах
    Вы не можете прикреплять файлы к сообщениям
    Вы можете скачивать файлы