Ссылка на приватное зеркало всего за 1$. Внимание количество ограничено!!!

iTunes

iTunes

iTunes

1

iTunes

iTunes

iTunes

iTunes

iTunes

30
pack

$ от Little Big

ВАЖНО

!!Акция!!

Alien_RageХит недели

RePack

Resident Evil 21

ИГРА 18+

pack

RePack

jed

!!Акция!!

Alien_Rage

RePack

fifa19

RePack

Assassins Creed: Odyssey

RePack

NEED FOR SPEED™ PAYBACK

4 сезон

9 сезон

Бесстыжие 9 сезон

Все сериалы

все сериалы на PB.wtf

RePack

FAR CRY 5
  

Одержимость Авы / Ava's Possessions (Джордан Галлан) [2015 г., ужасы, фантастика, триллер, детектив, WEB-DL 720p, DVO [den904 & DeadSno] (Без рекламы) pb.wtf

Одержимость Авы через торрент pb.wtf

Размер: 2.75 GB | Добавлен: 4 года 3 мес. назад | Торрент скачан:165 раз
Скачать  

17-03-2016 21:45 Одержимость Авы Скачать торрент  


Одержимость Авы / Ava's Possessions

Год выпуска: 2015
Страна: США / ODD NY, Off Hollywood Pictures, Ravenous Films (II), Traction Media
Жанр: ужасы, фантастика, триллер, детектив
Продолжительность: 1 ч. 27 м
Озвучивание: Любительское (двухголосое) [den904 & DeadSno]

Режиссер: Джордан Галлан
Продюссер: Джордан Галлан, Марен Олсон, Карлос Веласкес
Сценарий: Джордан Галлан

Бюджет: 26 апреля 2015
Премьера в мире: 26 апреля 2015

Рейтинг R - Детям до 17 лет обязательно присутствие родителей




В ролях: Джемима Кёрк, Уильям Сэдлер, Кэрол Кейн, Алисия Райнер, Дэн Фоглер, Лу Тэйлор Пуччи, Луиса Краузе, Джоэль де ла Фуэнте, Уитни Эйбл, Дебора Раш

Описание: Девушка всеми своими силами пытается отойти от одержимости демонами.

Качество: WEB-DL 720p
Формат: MKV
Видео кодек: MPEG4
Аудио кодек: AC3
Видео: 1280x532 (2.40:1), 23.976 fps, 3 812 Kbps (0.233 bit/pixel)
Аудио#1: AC-3, 48.0 KHz, 2 ch, 192 Kbps, CBR (Russian)
Аудио#2: AC-3, 48.0 KHz, 6 ch, 384 Kbps, CBR (English)
Субтитры: English
Примечание:
Релиз без рекламы.
скриншот   скриншот   скриншот  





Общее
Уникальный идентификатор : 183762424228800854057287732995809117917 (0x8A3F5B0529F0D31E9204F4BB4C6086DD)
Полное имя : Avas.Possessions.2015.L2.WEB-DL.720p.mkv
Формат : Matroska
Версия формата : Version 2
Размер файла : 2,75 Гбайт
Продолжительность : 1 ч. 27 м.
Общий поток : 4477 Кбит/сек
Дата кодирования : UTC 2016-03-17 13:08:38
Программа кодирования : mkvmerge v7.8.0 ('River Man') 32bit built on Apr 3 2015 12:11:22
Библиотека кодирования : libebml v1.3.1 + libmatroska v1.4.2

Видео
Идентификатор : 1
Формат : AVC
Формат/Информация : Advanced Video Codec
Профиль формата : Main@L3.1
Параметр CABAC формата : Нет
Параметр ReFrames формата : 2 кадра
Идентификатор кодека : V_MPEG4/ISO/AVC
Продолжительность : 1 ч. 27 м.
Битрейт : 3812 Кбит/сек
Ширина : 1280 пикселей
Высота : 532 пикселя
Соотношение сторон : 2,40:1
Режим частоты кадров : Постоянный
Частота кадров : 23,976 кадра/сек
Цветовое пространство : YUV
Субдискретизация насыщенности : 4:2:0
Битовая глубина : 8 бит
Тип развёртки : Прогрессивная
Бит/(Пиксели*Кадры) : 0.233
Размер потока : 2,34 Гбайт (85%)
Язык : English
Default : Да
Forced : Нет
Цветовой диапазон : Limited
Основные цвета : BT.709
Характеристики трансфера : BT.709
Коэффициенты матрицы : BT.709

Аудио #1
Идентификатор : 2
Формат : AC-3
Формат/Информация : Audio Coding 3
Расширение режима : CM (complete main)
Параметр Endianness формата : Big
Идентификатор кодека : A_AC3
Продолжительность : 1 ч. 27 м.
Вид битрейта : Постоянный
Битрейт : 192 Кбит/сек
Каналы : 2 канала
Расположение каналов : Front: L R
Частота : 48,0 КГц
Частота кадров : 31,250 кадров/сек (1536 spf)
Метод сжатия : С потерями
Размер потока : 121 Мбайт (4%)
Язык : Russian
Default : Да
Forced : Нет

Аудио #2
Идентификатор : 3
Формат : AC-3
Формат/Информация : Audio Coding 3
Расширение режима : CM (complete main)
Параметр Endianness формата : Big
Идентификатор кодека : A_AC3
Продолжительность : 1 ч. 27 м.
Вид битрейта : Постоянный
Битрейт : 384 Кбит/сек
Каналы : 6 каналов
Расположение каналов : Front: L C R, Side: L R, LFE
Частота : 48,0 КГц
Частота кадров : 31,250 кадров/сек (1536 spf)
Метод сжатия : С потерями
Размер потока : 241 Мбайт (9%)
Язык : English
Default : Нет
Forced : Нет

Текст
Идентификатор : 4
Формат : UTF-8
Идентификатор кодека : S_TEXT/UTF8
Идентификатор кодека/Информация : UTF-8 Plain Text
Язык : English
Default : Нет
Forced : Нет

Меню
00:00:00.000 : en:Chapter 1
00:07:56.142 : en:Chapter 2
00:15:25.007 : en:Chapter 3
00:22:22.382 : en:Chapter 4
00:29:12.917 : en:Chapter 5
00:37:50.893 : en:Chapter 6
00:45:07.120 : en:Chapter 7
00:51:44.267 : en:Chapter 8
01:00:16.779 : en:Chapter 9
01:07:35.175 : en:Chapter 10
01:21:54.158 : en:Chapter 11

pb.wtf



Скачать Одержимость Авы через торрент http://pic.kartinco.top/images/11/3wh4h.jpg Скачать фильм Одержимость Авы через торрент бесплантно в хорошем качестве Описание: Девушка всеми своими силами пытается отойти от одержимости ... 6.4 10 5
Торрент: Зарегистрирован [2016-03-17 21:45] · скачан: 165 раз
Статус: T временная
Размер: 2.75 GB
Как cкачать? Как скачать Одержимость Авы через торрент | qTorrent



Последний раз редактировалось: Energy (2016-03-17 22:37), всего редактировалось 4 раз(а)

28-11-2019 20:33  

Отключить всю рекламу на сайте

17-03-2016 22:12 Одержимость Авы Скачать торрент  

Цитата:

Длительность: 89 мин. / 01:29

Длительность : 1 ч. 27 м.pb.wtf



    Дорогой пользователь! Огромная просьба, поблагодарите релизера, оцените раздачу и оставьте свои комментарий, если Вы скачали Одержимость Авы через торрент бесплатно! Внесите свою лепту в развитие PiratBit!
    Комментировать посты могут только пользователи прошедшие не сложную регистрацию
    Показать сообщения:    

    Одержимость Авы через торрент
    Скачать бесплатно Одержимость Авы
    Одержимость Авы скачать торрент
    Одержимость Авы смотреть онлайн
    Cкачать фильм Одержимость Авы бесплатно
    Одержимость Авы скачать торрент в хорошем качестве
    Одержимость Авы смотреть онлайн бесплатно в хорошем качестве


    Вы не можете начинать темы
    Вы не можете отвечать на сообщения
    Вы не можете редактировать свои сообщения
    Вы не можете удалять свои сообщения
    Вы не можете голосовать в опросах
    Вы не можете прикреплять файлы к сообщениям
    Вы можете скачивать файлы