Ссылка на приватное зеркало нашего сайта всего за 1$. Внимание количество ограничено!!!

2 сезон

iTunes

1 сезон

1

2 сезон

2 сезон

iTunes

1 сезон

RePack

30

Новинка

ВАЖНО

ИГРА 18+

pack

RePack

MK11
pack

Забери бонус

RePack

jed

!!Акция!!

Alien_Rage

RePack

fifa19

RePack

Assassins Creed: Odyssey

RePack

NEED FOR SPEED™ PAYBACK

4 сезон

9 сезон

Бесстыжие 9 сезон

Все сериалы

все сериалы на PB.wtf

RePack

FAR CRY 5
  

WWE - The Epic Journey Of Dwayne "The Rock" Johnson [The Rock & WWE Superstars, 2012 г., Рестлинг, HDTVRip 720р] pb.wtf

WWE - The Epic Journey Of Dwayne "The Rock" Johnson через торрент pb.wtf

Размер: 1.67 GB | Добавлен: 4 года 8 мес. назад | Торрент скачан:7 раз
Скачать  

18-03-2016 18:10 WWE - The Epic Journey Of Dwayne "The Rock" Johnson Скачать торрент  


WWE - The Epic Journey Of Dwayne "The Rock" Johnson
Год выпуска: 2012
Вид спорта: Рестлинг
Участники: The Rock & WWE Superstars

Продолжительность: 01:51:33
Комментарий: Профессиональный (двухголосый)
Язык комментариев: Английский
Описание: He electrified a generation of sports entertainment fans with his brash style, superb athleticism, and uproarious interviews. He held the WWE Championship a record seven times, and was known for legendary battles with ''Stone Cold'' Steve Austin, Triple H, Mick Foley, Undertaker, and more. And at the peak of his popularity, he made a move to conquer a new industry, becoming an enormous movie star. Now, he's back in WWE, ready to main event the biggest WrestleMania in history, ''The People's WrestleMania.'' In the exciting buildup to WrestleMania XVIII, fans can, for the first time ever on DVD, relive the exciting life and times of the Rock. Packed with brand new interviews as well as a selection of the Rock's biggest career-spanning bouts, moments, and promos, this DVD/Blu-Ray set will electrify every member of Team Bring It!
Качество: HDTVRip 720р
Формат: MP4
Видео кодек: MPEG4
Аудио кодек: AAC
Видео: 1280x720 (16:9), 25.000 fps, 1 980 Kbps (0.086 bit/pixel)
Аудио: AAC LC, 44.1 KHz, 2 ch, 152 Kbps
Сэмпл




видео объединено из двух часей в одно и склеивалась с помощью yamb
скриншот   скриншот   скриншот   скриншот   скриншот  
Family Tradition
The U
Blue-Chip
Rocky Sucks
Nation of Domination
The Corporate Champion
Fighting for Number One
The People’s Champion
Rock & Sock Connection
Mainstream Star
Electrifying
Icon vs. Icon
Backlash
Rock Concert
“The Rock Has Done it All”
Hollywood Sensation
Twentieth Anniversary
Honouring his Family
Rock Comes Home
A Year in the Making
Happy Birthday
Rock’s Toy Chest

Survivor Series Elimination Match
Rocky Maivia, Marc Mero, Barry Windham & Jake “The Snake” Roberts vs. Hunter Hearst- Helmsley, Goldust, Crush & Jerry “The King” Lawler
Survivor Series 17th November, 1996

Ladder Match for the Intercontinental Championship
The Rock vs. Triple H
SummerSlam 30th August, 1998

Triple Threat Cage Match
The Rock vs. Mankind vs. Ken Shamrock
Breakdown 27th September, 1998

“I Quit” Match for the WWE Championship
The Rock vs. Mankind
Royal Rumble 24th January, 1999

No Holds Barred Match for the WWE Championship
The Rock vs. Stone Cold Steve Austin
Backlash 25th April, 1999

Triple Threat Match for the WWE Championship
The Rock vs. Kurt Angle vs. Triple H
SummerSlam 27th August, 2000

World Tag Team Championship Match
The Rock & Undertaker vs. Edge & Christian
Raw 18th December, 2000

WWE Undisputed Championship Match
The Rock vs. Ric Flair
Raw 29th July, 2002

WWE Undisputed Championship Match
The Rock vs. Brock Lesnar
SummerSlam 25th August, 2002

The Rock vs. Hulk Hogan
No Way Out 23rd February, 2003

The Rock returns to Raw
Raw 24th February, 2003

The Rock Concert II
Raw 21st April, 2003

The WrestleMania Guest Host
Raw 14th February, 2011

The People’s WrestleMania
WrestleMania XXVII 3rd April, 2011

Blu-Ray Exclusive Content:

The Rock challenges John Cena for WrestleMania XXVIII
Raw 4th April, 2011

The Rock’s Birthday Celebration
Raw 2nd May, 2011

Never Before, Never Again
The Rock & John Cena vs. Awesome Truth
Survivor Series 20th November, 2011

Farmland

People’s Elbow

Toy Chest

The Rock Thanks New York City
Общее
Полное имя : WWE The Epic Journey Of Dwayne The Rock Johnson.mp4
Формат : MPEG-4
Профиль формата : Base Media
Идентификатор кодека : isom (isom/iso2/avc1/mp41)
Размер файла : 1,67 Гбайт
Продолжительность : 1 ч. 51 м.
Общий поток : 2137 Кбит/сек
Программа кодирования : Lavf56.36.100

Видео
Идентификатор : 1
Формат : AVC
Формат/Информация : Advanced Video Codec
Профиль формата : High@L3.1
Параметр CABAC формата : Да
Параметр ReFrames формата : 4 кадра
Идентификатор кодека : avc1
Идентификатор кодека/Информация : Advanced Video Coding
Продолжительность : 1 ч. 51 м.
Битрейт : 1980 Кбит/сек
Ширина : 1280 пикселей
Высота : 720 пикселей
Соотношение сторон : 16:9
Режим частоты кадров : Переменный
Частота кадров : 25,000 кадров/сек
Минимальная частота кадров : 12,500 кадров/сек
Максимальная частота кадров : 25,000 кадров/сек
Цветовое пространство : YUV
Субдискретизация насыщенности : 4:2:0
Битовая глубина : 8 бит
Тип развёртки : Прогрессивная
Бит/(Пиксели*Кадры) : 0.086
Размер потока : 1,54 Гбайт (93%)
Библиотека кодирования : x264 core 142
Настройки программы : cabac=1 / ref=3 / deblock=1:0:0 / analyse=0x3:0x113 / me=hex / subme=7 / psy=1 / psy_rd=1.00:0.00 / mixed_ref=1 / me_range=16 / chroma_me=1 / trellis=1 / 8x8dct=1 / cqm=0 / deadzone=21,11 / fast_pskip=1 / chroma_qp_offset=-2 / threads=4 / lookahead_threads=1 / sliced_threads=0 / nr=0 / decimate=1 / interlaced=0 / bluray_compat=0 / constrained_intra=0 / bframes=3 / b_pyramid=2 / b_adapt=1 / b_bias=0 / direct=1 / weightb=1 / open_gop=0 / weightp=2 / keyint=250 / keyint_min=25 / scenecut=40 / intra_refresh=0 / rc_lookahead=40 / rc=2pass / mbtree=1 / bitrate=1980 / ratetol=1.0 / qcomp=0.60 / qpmin=0 / qpmax=69 / qpstep=4 / cplxblur=20.0 / qblur=0.5 / ip_ratio=1.40 / aq=1:1.00

Аудио
Идентификатор : 2
Формат : AAC
Формат/Информация : Advanced Audio Codec
Профиль формата : LC
Идентификатор кодека : 40
Продолжительность : 1 ч. 51 м.
Вид битрейта : Постоянный
Битрейт : 152 Кбит/сек
Каналы : 2 канала
Расположение каналов : Front: L R
Частота : 44,1 КГц
Частота кадров : 43,066 кадра/сек (1024 spf)
Метод сжатия : С потерями
Размер потока : 121 Мбайт (7%)
Язык : unk
Default : Да
Alternate group : 1
pb.wtf



Скачать WWE - The Epic Journey Of Dwayne "The Rock" Johnson через торрент http://pic1.kartinco.top/images/10/ahrh5.jpg Скачать фильм WWE - The Epic Journey Of Dwayne "The Rock" Johnson [The Rock & WWE Superstars, 2012 г., Рестлинг, HDTVRip 720р]через торрент бесплантно в хорошем качестве Описание: He electrified a generation of sports entertainment fans with his brash style, superb athleticism, and uproarious interviews. He ... 10 10 1
Торрент: Зарегистрирован [2016-03-18 18:10] · скачан: 7 раз
Статус: √ проверено
Размер: 1.67 GB
Как cкачать? Как скачать WWE - The Epic Journey Of Dwayne "The Rock" Johnson через торрент | qTorrent



Последний раз редактировалось: Energy (2016-03-18 20:15), всего редактировалось 3 раз(а)

28-11-2019 20:33  

Отключить всю рекламу на сайте

18-03-2016 18:18 WWE - The Epic Journey Of Dwayne "The Rock" Johnson Скачать торрент  

Цитата:

Качество: HDTVRip

Качество: HDTVRip 720р
Описание должно быть на русском языке.pb.wtf



18-03-2016 18:34 WWE - The Epic Journey Of Dwayne "The Rock" Johnson Скачать торрент  

schultz, придёться оставить так описание на руском нет везде искалpb.wtf



    Дорогой пользователь! Огромная просьба, поблагодарите релизера, оцените раздачу и оставьте свои комментарий, если Вы скачали WWE - The Epic Journey Of Dwayne "The Rock" Johnson через торрент бесплатно! Внесите свою лепту в развитие PiratBit!
    Комментировать посты могут только пользователи прошедшие не сложную регистрацию
    Показать сообщения:    

    WWE - The Epic Journey Of Dwayne "The Rock" Johnson через торрент
    Скачать бесплатно WWE - The Epic Journey Of Dwayne "The Rock" Johnson
    WWE - The Epic Journey Of Dwayne "The Rock" Johnson скачать торрент
    WWE - The Epic Journey Of Dwayne "The Rock" Johnson смотреть онлайн
    Cкачать фильм WWE - The Epic Journey Of Dwayne "The Rock" Johnson бесплатно
    WWE - The Epic Journey Of Dwayne "The Rock" Johnson скачать торрент в хорошем качестве
    WWE - The Epic Journey Of Dwayne "The Rock" Johnson смотреть онлайн бесплатно в хорошем качестве


    Вы не можете начинать темы
    Вы не можете отвечать на сообщения
    Вы не можете редактировать свои сообщения
    Вы не можете удалять свои сообщения
    Вы не можете голосовать в опросах
    Вы не можете прикреплять файлы к сообщениям
    Вы можете скачивать файлы