новый адрес пиратбит piratbit
Мега распродажа FORZA HORIZON 4 ULTIMATE+ВСЕ DLC+ОНЛАЙН всего за 499р. 349 руб. (супер цена). Внимание количество ограничено!!!

iTunes

1+1

iTunes

мы

iTunes

1

iTunes

Чернобыль

iTunes

Ральф против интернета

Лицензия

ПШазам

Лицензия

Игра престолов

Лицензия

30
pack

ВАЖНО

!!Акция!!

Alien_RageХит недели

RePack

Resident Evil 21

ИГРА 18+

pack

RePack

Metro:Exodus

!!Акция!!

Alien_Rage

RePack

fifa19

RePack

Assassins Creed: Odyssey

RePack

NEED FOR SPEED™ PAYBACK

3 сезон

9 сезон

Бесстыжие 9 сезон

Все сериалы

все сериалы на PB.wtf

RePack

FAR CRY 5
Ребята, катастрофически не хватает 1900р. для оплаты серверов за Октябрь (всвязи с блокировками трафик упал в 3 раза), 1-2р., выручайте.
  

Нахлебник (Владимир Басов, Мстислав Корчагин) [1953, СССР, драма, история, DVDRip от AVP Studio] pb.wtf

Нахлебник через торрент pb.wtf

Размер: 744 MB | Добавлен: 3 года 7 мес. назад | Торрент скачан:16 раз
Скачать  

19-03-2016 09:01 Нахлебник Скачать торрент  

Нахлебник
Страна: СССР
Производство: Мосфильм

Жанр: драма, история
Год выпуска: 1953
Продолжительность: 01:32:37

Перевод: Не требуется
Cубтитры: нет
Оригинальная аудиодорожка: русский

Режиссер: Владимир Басов, Мстислав Корчагин

В ролях:
Борис Чирков, Сергей Курилов, Лидия Драновская, Павел Шпрингфельд, Сергей Комаров, Степан Крылов, Георгий Георгиу, Владимир Уральский, Александра Денисова, Римма Шорохова, Владимир Борискин...
Полный список актёров

Описание:
Фильм-спектакль, драма по одноименной пьесе И.С.Тургенева.
Постановка Театра-студии киноактера; режиссер спектакля — Борис Лифанов, художник спектакля — К.Ефимов.
После многолетнего отсутствия из Петербурга в свое имение приезжает с мужем молодая помещица Елецкая. Молодых встречает бедный дворянин Кузовкин (Б.Чирков) - нахлебник в доме Елецкой. Ее муж и окрестные помещики, томимые скукой провинциальной жизни, потешаются над стариком, унижая его человеческое достоинство. Не выдержав издевательств, Кузовкин во всеуслышание объявляет, что хозяйка имения - его дочь. По настоянию Елецкого старик покидает дом своей дочери.

Источник: DVD5 R5
Качество видео: DVDRip
Формат видео: AVI

Видео: 576x432 (4:3), 25 fps, XviD ~ 986 kbps avg, 0.159 bit/pixel
Аудио: 48 kHz, MP3 2.0, 128 kbps

Раздача от:
Общее
Полное имя : Nahlebnik.1953.DVDRip-745_[New-team]_by_AVP_Studio.avi
Формат : AVI
Формат/Информация : Audio Video Interleave
Размер файла : 744 Мбайт
Продолжительность : 1 ч. 32 м.
Общий поток : 1124 Кбит/сек
Программа кодирования : VirtualDubMod 1.5.10.3 | www.virtualdub-fr.org || (build 2550/release)
Библиотека кодирования : VirtualDubMod build 2550/release

Видео
Идентификатор : 0
Формат : MPEG-4 Visual
Профиль формата : Advanced Simple@L5
Параметр BVOP формата : 1
Параметр QPel формата : Нет
Параметр GMC формата : Без точки перехода
Параметр матрицы формата : Выборочная
Идентификатор кодека : XVID
Идентификатор кодека/Подсказка : XviD
Продолжительность : 1 ч. 32 м.
Битрейт : 986 Кбит/сек
Ширина : 576 пикселей
Высота : 432 пикселя
Соотношение сторон : 4:3
Частота кадров : 25,000 кадров/сек
Цветовое пространство : YUV
Субдискретизация насыщенности : 4:2:0
Битовая глубина : 8 бит
Тип развёртки : Прогрессивная
Метод сжатия : С потерями
Бит/(Пиксели*Кадры) : 0.159
Размер потока : 653 Мбайт (88%)
Библиотека кодирования : XviD 1.2.1 (UTC 2008-12-04)

Аудио
Идентификатор : 1
Формат : MPEG Audio
Версия формата : Version 1
Профиль формата : Layer 3
Идентификатор кодека : 55
Идентификатор кодека/Подсказка : MP3
Продолжительность : 1 ч. 32 м.
Вид битрейта : Постоянный
Битрейт : 128 Кбит/сек
Каналы : 2 канала
Частота : 48,0 КГц
Метод сжатия : С потерями
Размер потока : 84,8 Мбайт (11%)
Выравнивание : Соединение по промежуткам
Продолжительность промежутка : 40 мс. (1,00 видеокадр)
Время предзагрузки промежутка : 504 мс.
Библиотека кодирования : LAME3.99r
Настройки программы : -m s -V 4 -q 2 -lowpass 17 -b 128
pb.wtf



Скачать Нахлебник через торрент http://s010.radikal.ru/i314/1603/ca/32c0f02b8ddd.png Скачать фильм Нахлебник через торрент бесплантно в хорошем качестве Описание:Фильм-спектакль, драма по одноименной пьесе И.С.Тургенева.Постановка Театра-студии киноактера; режиссер спектакля — Борис Лифанов, ... 5 10 1
Info! Золотая раздача, скачанное не засчитывается.
Торрент: Зарегистрирован [2016-03-19 09:01] · скачан: 16 раз
Статус: √ проверено
Размер: 744 MB
Как cкачать? Как скачать Нахлебник через торрент | qTorrent

% Раздел Тема Автор DL S | L
Кино СССР [ 1.46 GB ] Нахлебник [1953 СССР история DVDRip-AVC от AVP Studio] AVP Studio Скачать
1 | 0
Кино СССР [ 1.46 GB ] Нахлебник [1953 СССР история DVDRip от AVP Studio] AVP Studio Скачать
1 | 0
Фильмы 2012 [ 1.44 GB ] Нахлебник / The Boarder [2012 HDTVRip MVO ] k1z Скачать
1 | 0


>> Регистрируемся здесь <<






Отзывы и комментарии о схеме читаем и пишем здесь: ---> Отзывы и комментарии о схеме

Новые благодарочки в телеграм довольных пользователей:
скриншот   скриншот   скриншот   скриншот   скриншот
    Дорогой пользователь! Огромная просьба, поблагодарите релизера, оцените раздачу и оставьте свои комментарий, если Вы скачали Нахлебник через торрент бесплатно! Внесите свою лепту в развитие PiratBit!
    Комментировать посты могут только пользователи прошедшие не сложную регистрацию
    Показать сообщения:    

    Нахлебник через торрент
    Скачать бесплатно Нахлебник
    Нахлебник скачать торрент
    Нахлебник смотреть онлайн
    Cкачать фильм Нахлебник бесплатно
    Нахлебник скачать торрент в хорошем качестве
    Нахлебник смотреть онлайн бесплатно в хорошем качестве


    Вы не можете начинать темы
    Вы не можете отвечать на сообщения
    Вы не можете редактировать свои сообщения
    Вы не можете удалять свои сообщения
    Вы не можете голосовать в опросах
    Вы не можете прикреплять файлы к сообщениям
    Вы можете скачивать файлы