Ссылка на приватное зеркало нашего сайта всего за 1$. Внимание количество ограничено!!!

2 сезон

iTunes

1 сезон

1

2 сезон

2 сезон

iTunes

1 сезон

RePack

30

Ultimate

ВАЖНО

ИГРА 18+

pack

RePack

MK11
pack

Забери бонус

RePack

jed

!!Акция!!

Alien_Rage

RePack

fifa19

RePack

Assassins Creed: Odyssey

RePack

NEED FOR SPEED™ PAYBACK

4 сезон

9 сезон

Бесстыжие 9 сезон

Все сериалы

все сериалы на PB.wtf

RePack

FAR CRY 5
  

Сорвиголова / Daredevil / Cезон 2 / Cерии 1-13 из 13 (Фил Абрахам, Фэррен Блэкберн, Стивен С. ДеНайт) [2016 г., фантастика, боевик, WEBRip, Любительский (двухголосый)[ColdFilm]] pb.wtf

Сорвиголова через торрент pb.wtf

Размер: 5.1 GB | Добавлен: 4 года 7 мес. назад | Торрент скачан:81 раз
Скачать  

19-03-2016 09:09 Сорвиголова Скачать торрент  

Сорвиголова / Daredevil«The man without fear» Год выпуска: 2016
Страна: США
Выпущено::ABC Television Studio, Marvel Entertainment, Walt Disney Company
Жанр: фантастика, боевик
Продолжительность: 00:47:00
Перевод: Любительский (двухголосый)[ColdFilm]
Субтитры: Отсутствуют
Режиссер: Фил Абрахам, Фэррен Блэкберн, Стивен С. ДеНайт

В ролях:
Кокс, Дебора Энн Уолл, Элден Хенсон, Розарио Доусон, Винсент Д’Онофрио, Айелет Зурер, Боб Гантон, Тоби Мур, Вонди Куртис-Холл, Роб Морган и др.


Мэтт Мердок отличный специалист, но в результате несчастного случае он потерял зрение еще в юном возрасте. Как известно, люди, потерявшие какой-либо орган чувств, усиливают все остальные рефлексы в несколько раз. Именно поэтому, лишенный зрения Мэрдок отлично чувствует и слышит все происходящее вокруг. Он решает посвятить свою жизнь борьбе с преступностью. Теперь он с утра и до вечера - успешный адвокат, а ночью превращается в неуловимого мстителя в маске по прозвищу Сорвиголова! Ночной город может спасть спокойно, когда на улицах города вершит правосудие этот человек, способный остановить любого злодея!

Качество: WEBRip
Формат: AVI
Видео кодек: XviD
Аудио кодек: MP3
Видео: 720x400 (16/9),25,000 fps,974 Kbps,0.135 bit/pixel
Аудио#1: 48 kHz,2 ch,128 kbps








Общее
Полное имя : D:\uTorrent\Сорвиголова\Marvels.Daredevil.S02E01.400p.WEBRip.ColdFilm.avi
Формат : AVI
Формат/Информация : Audio Video Interleave
Размер файла : 380 Мбайт
Продолжительность : 47 м.
Общий поток : 1115 Кбит/сек
Программа кодирования : Lavf54.63.104

Видео
Идентификатор : 0
Формат : xvid
Идентификатор кодека : xvid
Продолжительность : 47 м.
Битрейт : 974 Кбит/сек
Ширина : 720 пикселей
Высота : 400 пикселей
Соотношение сторон : 16:9
Частота кадров : 25,000 кадров/сек
Тип развёртки : Прогрессивная
Бит/(Пиксели*Кадры) : 0.135
Размер потока : 332 Мбайт (87%)

Аудио
Идентификатор : 1
Формат : MPEG Audio
Версия формата : Version 1
Профиль формата : Layer 3
Режим : Joint stereo
Идентификатор кодека : 55
Идентификатор кодека/Подсказка : MP3
Продолжительность : 47 м.
Вид битрейта : Постоянный
Битрейт : 128 Кбит/сек
Каналы : 2 канала
Частота : 48,0 КГц
Метод сжатия : С потерями
Размер потока : 43,6 Мбайт (11%)
Выравнивание : Соединение по промежуткам
Продолжительность промежутка : 24 мс. (0,60 видеокадр)
Библиотека кодирования : LAME3.99.5

Внимание! Раздача ведётся путём добавления новых серий
Внимание! Раздача ведётся путём добавления новых серий; при каждом добавлении создаётся новый торрент. Чтобы начать докачку новой серии, пользователям необходимо сделать следующее:
(1) остановить скачивание,
(2) удалить старый торрент у себя из клиента (старые серии удалять не надо),
(3) скачать новый торрент и запустить его у себя в клиенте вместо старого, при этом указать клиенту путь в старую папку куда и должно происходить скачивание новых серий.

Ваш клиент при этом должен произвести хеширование (проверку) старой папки (если не производит сам - помогите ему сделать это), и будет докачивать только те серии которых у вас ещё нет. Старые серии при этом не удаляются, а продолжают раздаваться!

Eсли вы уже удалили старые серии, то предотвратить повторную закачку старых серий можно, отжав галочку в соответсвующих местах при запуске нового торрента. По возможности, желательно не удалять старые серии как можно дольше чтобы релизёр не столько продолжал раздавать старые серии, а смог сконцентрироваться на новых.
pb.wtf



Скачать Сорвиголова через торрент http://i75.fastpic.ru/big/2016/0319/61/e6dd2360e23ca3df3c19042ba9347561.jpg Скачать фильм Сорвиголова через торрент бесплантно в хорошем качестве qw.png Мэтт Мердок отличный специалист, но в результате несчастного случае он потерял зрение еще в юном возрасте. Как известно, люди, ... 8.9 10 8
Торрент: Зарегистрирован [2016-04-10 08:23] · скачан: 81 раз
Статус: √ проверено
Размер: 5.1 GB
Как cкачать? Как скачать Сорвиголова через торрент | qTorrent



Последний раз редактировалось: _Fenixx_ни мужик ни баба (2016-04-10 08:23), всего редактировалось 1 раз

28-11-2019 20:33  

Отключить всю рекламу на сайте

24-03-2016 18:33 Сорвиголова Скачать торрент  

Спасибо автору!!! pb.wtf



10-04-2016 09:40 Сорвиголова Скачать торрент  

dom1no98 писал(а):

Спасибо автору!!!

Да не за что)))pb.wtf



    Дорогой пользователь! Огромная просьба, поблагодарите релизера, оцените раздачу и оставьте свои комментарий, если Вы скачали Сорвиголова через торрент бесплатно! Внесите свою лепту в развитие PiratBit!
    Комментировать посты могут только пользователи прошедшие не сложную регистрацию
    Показать сообщения:    

    Сорвиголова через торрент
    Скачать бесплатно Сорвиголова
    Сорвиголова скачать торрент
    Сорвиголова смотреть онлайн
    Cкачать фильм Сорвиголова бесплатно
    Сорвиголова скачать торрент в хорошем качестве
    Сорвиголова смотреть онлайн бесплатно в хорошем качестве


    Вы не можете начинать темы
    Вы не можете отвечать на сообщения
    Вы не можете редактировать свои сообщения
    Вы не можете удалять свои сообщения
    Вы не можете голосовать в опросах
    Вы не можете прикреплять файлы к сообщениям
    Вы можете скачивать файлы