2 сезон

iTunes

1 сезон

1

iTunes

iTunes

iTunes

1 сезон

RePack

30

ИГРА 18+

pack

ВАЖНО

!!Акция!!

Alien_RageХит недели

RePack

MK11
pack

Забери бонус

RePack

jed

!!Акция!!

Alien_Rage

RePack

fifa19

RePack

Assassins Creed: Odyssey

RePack

NEED FOR SPEED™ PAYBACK

4 сезон

9 сезон

Бесстыжие 9 сезон

Все сериалы

все сериалы на PB.wtf

RePack

FAR CRY 5
  

Хороший динозавр / The Good Dinosaur (Питер Сон / Peter Sohn) [2015, мультфильм, фэнтези, комедия, BDRip-AVC от potroks] DUB Лицензия pb.wtf

Хороший динозавр через торрент pb.wtf

Размер: 1.46 GB | Добавлен: 4 года 7 мес. назад | Торрент скачан:437 раз
Скачать  

20-03-2016 04:32 Хороший динозавр Скачать торрент  

Хороший динозавр / The Good Dinosaur
«Tiny but tough»
Год выпуска: 2015
Страна: США / Pixar Animation Studios, Walt Disney Pictures
Жанр: мультфильм, фэнтези, комедия, приключения, семейный
Продолжительность: 01:33:50
Перевод: Дубляж [BD CEE]
Субтитры: русские (полные (х2) + форс.)
Навигация по главам: есть
Режиссер: Питер Сон / Peter Sohn
В ролях:

Джеффри Райт (Poppa, озвучка), Фрэнсис МакДорманд (Momma, озвучка), Малиа Нипай-Падилья (Young Libby, озвучка), Райан Типл (Young Buck, озвучка), Джек МакГроу (Young Arlo, озвучка), Маркус Скрибнер (Buck, озвучка), Рэймонд Очоа (Arlo, озвучка), Джек Брайт (Spot, озвучка), Питер Сон (Pet Collector, озвучка), Стив Зан (Thunderclap, озвучка), Мэнди Фройнд (Downpour, озвучка), Стивен Клэй Хантер (Coldfront, озвучка)




Описание: По сюжету динозавры не вымерли, а эволюционировали в разумных существ и живут и здравствуют на Земле. А вот люди остались на довольно примитивной стадии развития. Фильм расскажет историю дружбы динозавра и маленького мальчика.









Качество: BDRip-AVC
Формат: MKV
Видео кодек: AVC
Аудио кодек: AC3
Видео: 960x402 (2.40:1), 2036 kbps, 23,976 fps, 0.220 bit/pixel
Аудио: AC3 / 2.0 / 48 kHz / 192 kbps / 16 bit

Автор рипа: potroks

Код:

Общее
Уникальный идентификатор : 209467441702409238121067279046232882322 (0x9D95F63ACFA27CDA85ADC54F638DBC92)
Полное имя : Horoshyi.Dinozavr.2015.RUS.BDRip.x264.-HELLYWOOD.mkv
Формат : Matroska
Версия формата : Version 4 / Version 2
Размер файла : 1,46 Гбайт
Продолжительность : 1 ч. 33 м.
Общий поток : 2229 Кбит/сек
Название фильма : The Good Dinosaur (2015)
Дата кодирования : UTC 2016-03-20 04:27:38
Программа кодирования : mkvmerge v5.9.0 ('On The Loose') built on Dec 15 2012 16:39:58
Библиотека кодирования : libebml v1.3.0 + libmatroska v1.4.0

Видео
Идентификатор : 1
Формат : AVC
Формат/Информация : Advanced Video Codec
Профиль формата : High@L4.1
Параметр CABAC формата : Да
Параметр ReFrames формата : 12 кадров
Идентификатор кодека : V_MPEG4/ISO/AVC
Продолжительность : 1 ч. 33 м.
Битрейт : 2036 Кбит/сек
Ширина : 960 пикселей
Высота : 402 пикселя
Соотношение сторон : 2,40:1
Режим частоты кадров : Постоянный
Частота кадров : 23,976 кадра/сек
Цветовое пространство : YUV
Субдискретизация насыщенности : 4:2:0
Битовая глубина : 8 бит
Тип развёртки : Прогрессивная
Бит/(Пиксели*Кадры) : 0.220
Размер потока : 1,31 Гбайт (89%)
Заголовок : potroks
Библиотека кодирования : x264 core 146 r2538 121396c
Настройки программы : cabac=1 / ref=12 / deblock=1:-1:-1 / analyse=0x3:0x113 / me=umh / subme=11 / psy=1 / psy_rd=1.00:0.05 / mixed_ref=1 / me_range=32 / chroma_me=1 / trellis=2 / 8x8dct=1 / cqm=0 / deadzone=21,11 / fast_pskip=0 / chroma_qp_offset=-3 / threads=9 / lookahead_threads=2 / sliced_threads=0 / nr=0 / decimate=0 / interlaced=0 / bluray_compat=0 / constrained_intra=0 / bframes=13 / b_pyramid=2 / b_adapt=2 / b_bias=0 / direct=3 / weightb=1 / open_gop=0 / weightp=2 / keyint=240 / keyint_min=23 / scenecut=40 / intra_refresh=0 / rc_lookahead=60 / rc=2pass / mbtree=0 / bitrate=2036 / ratetol=1.0 / qcomp=0.70 / qpmin=0 / qpmax=69 / qpstep=4 / cplxblur=20.0 / qblur=0.5 / vbv_maxrate=14000 / vbv_bufsize=14000 / nal_hrd=none / filler=0 / ip_ratio=1.35 / pb_ratio=1.25 / aq=1:0.80
Язык : English
Default : Да
Forced : Нет

Аудио
Идентификатор : 2
Формат : AC-3
Формат/Информация : Audio Coding 3
Расширение режима : CM (complete main)
Параметр Endianness формата : Big
Идентификатор кодека : A_AC3
Продолжительность : 1 ч. 33 м.
Вид битрейта : Постоянный
Битрейт : 192 Кбит/сек
Каналы : 2 канала
Расположение каналов : Front: L R
Частота : 48,0 КГц
Метод сжатия : С потерями
Размер потока : 129 Мбайт (9%)
Заголовок : Dub | DD 2.0 @ 192 kbps - Blu-Ray CEE
Язык : Russian
Default : Да
Forced : Нет

Текст #1
Идентификатор : 3
Формат : UTF-8
Идентификатор кодека : S_TEXT/UTF8
Идентификатор кодека/Информация : UTF-8 Plain Text
Заголовок : Forced
Язык : Russian
Default : Да
Forced : Нет

Текст #2
Идентификатор : 4
Формат : UTF-8
Идентификатор кодека : S_TEXT/UTF8
Идентификатор кодека/Информация : UTF-8 Plain Text
Заголовок : Blu-Ray
Язык : Russian
Default : Нет
Forced : Нет

Текст #3
Идентификатор : 5
Формат : UTF-8
Идентификатор кодека : S_TEXT/UTF8
Идентификатор кодека/Информация : UTF-8 Plain Text
Язык : Russian
Default : Нет
Forced : Нет

Меню
00:00:00.000 : en:Chapter 01
00:03:37.967 : en:Chapter 02
00:06:16.459 : en:Chapter 03
00:08:14.160 : en:Chapter 04
00:12:12.606 : en:Chapter 05
00:14:33.914 : en:Chapter 06
00:17:42.352 : en:Chapter 07
00:21:10.644 : en:Chapter 08
00:22:58.168 : en:Chapter 09
00:26:41.057 : en:Chapter 10
00:29:02.615 : en:Chapter 11
00:33:10.363 : en:Chapter 12
00:35:28.668 : en:Chapter 13
00:38:14.458 : en:Chapter 14
00:41:08.841 : en:Chapter 15
00:45:42.948 : en:Chapter 16
00:47:47.948 : en:Chapter 17
00:51:48.271 : en:Chapter 18
00:55:46.968 : en:Chapter 19
01:00:22.952 : en:Chapter 20
01:03:59.001 : en:Chapter 21
01:05:27.214 : en:Chapter 22
01:07:11.777 : en:Chapter 23
01:11:06.428 : en:Chapter 24
01:13:43.377 : en:Chapter 25
01:16:01.431 : en:Chapter 26
01:19:08.493 : en:Chapter 27
01:23:56.865 : en:Chapter 28
01:26:01.114 : en:Chapter 29

pb.wtf



Скачать Хороший динозавр через торрент http://i73.fastpic.ru/big/2016/0319/f8/053a6c7499cc574fb815ad3a8ebee1f8.png Скачать фильм Хороший динозавр через торрент бесплантно в хорошем качестве Описание: По сюжету динозавры не вымерли, а эволюционировали в разумных существ и живут и здравствуют на Земле. А вот люди остались на ... 10 10 9
Info! Золотая раздача, скачанное не засчитывается.
Торрент: Зарегистрирован [2016-03-20 04:32] · скачан: 437 раз
Статус: √ проверено
Размер: 1.46 GB
Как cкачать? Как скачать Хороший динозавр через торрент | qTorrent

% Раздел Тема Автор DL S | L
Ultra HD (UHD: 2K, 4K, 8K) [ 14.27 GB ] Хороший динозавр / The Good Dinosaur [2015 Мультфильм UHD BDRip 2160p] DUB [] bober100 Скачать
1 | 0
Ultra HD (UHD: 2K, 4K, 8K) [ 41.36 GB ] Хороший динозавр / The Good Dinosaur [2015 Мультфильм UHD BDRemux 2160p] DUB [] bober100 Скачать
1 | 0
Иностранные мультфильмы [ 1.46 GB ] Хороший динозавр / The Good Dinosaur [2015 мультфильм BDRip] DUB Twi7ter Скачать
2 | 0
Зарубежные Мультфильмы (BDRip 1080p, 720p, Blu-ray, BD-Remux) [ 22.81 GB ] Хороший динозавр / The Good Dinosaur [2015 мультфильм BDRemux 1080p] Локализованная версия / Dub AVO / Russian Mafia Скачать
1 | 0
Иностранные мультфильмы [ 2.18 GB ] Хороший динозавр / The Good Dinosaur [2015 мультфильм BDRip-AVC] DUB potroks Скачать
1 | 0
Зарубежные Мультфильмы (BDRip 1080p, 720p, Blu-ray, BD-Remux) [ 4.37 GB ] Хороший динозавр / The Good Dinosaur [2015 мультфильм BDRip 720p] DUB potroks Скачать
1 | 0

28-11-2019 20:33  

Отключить всю рекламу на сайте

20-03-2016 04:58 Хороший динозавр Скачать торрент  

Мульт прикольный, динозавр тоже)))pb.wtf



    Дорогой пользователь! Огромная просьба, поблагодарите релизера, оцените раздачу и оставьте свои комментарий, если Вы скачали Хороший динозавр через торрент бесплатно! Внесите свою лепту в развитие PiratBit!
    Комментировать посты могут только пользователи прошедшие не сложную регистрацию
    Показать сообщения:    

    Хороший динозавр через торрент
    Скачать бесплатно Хороший динозавр
    Хороший динозавр скачать торрент
    Хороший динозавр смотреть онлайн
    Cкачать фильм Хороший динозавр бесплатно
    Хороший динозавр скачать торрент в хорошем качестве
    Хороший динозавр смотреть онлайн бесплатно в хорошем качестве


    Вы не можете начинать темы
    Вы не можете отвечать на сообщения
    Вы не можете редактировать свои сообщения
    Вы не можете удалять свои сообщения
    Вы не можете голосовать в опросах
    Вы не можете прикреплять файлы к сообщениям
    Вы можете скачивать файлы